Running Wild – Rogues En Vogue




[Total: 0    Average: 0/5]

Artist: Running Wild
Year: 2005
Genre: Metal
Notes: Discogs
Add. Notes:
Cover incl.: Yes
Encoder: FLAC
Bitrate: ~1000 kBit/s (44.1 kHz/16 Bit/s)
Log & Cue incl.: Yes
Size: 536 MB
Password: “slam” (without ” “)


All Downloads/Hosters are compatible

Download 1
Share-online.biz
KatFile.com
Rapidgator.net
Mexa.sh
Download 2
Share-online.biz
KatFile.com
Rapidgator.net
Mexa.sh

Tracklist:

1  Draw The Line  4:13
2  Angel Of Mercy  4:46
3  Skeleton Dance  4:27
4  Skull & Bones  6:23
5  Born Bad, Dying Worse  4:19
6  Black Gold  4:18
7  Soul Vampires  3:56
8  Rogues En Vogue  4:47
9  Winged & Feathered  5:16
10  Dead Man's Road  3:36
11  The War  10:38

Label: GUN ‎– GUN 206, BMG ‎– 82876 
64724 2

EAC-Log, CUE-Sheed & NFO:

Click to open spoiler
Exact Audio Copy V1.0 beta 3 from 29. August 2011

EAC extraction logfile from 13. February 2014, 15:51

Running Wild / Rogues En Vogue [GUN 206, 82876 64724 2, EU]

Used drive : PIONEER DVD-RW DVR-112D Adapter: 0 ID: 0

Read mode : Secure
Utilize accurate stream : Yes
Defeat audio cache : Yes
Make use of C2 pointers : No

Read offset correction : 48
Overread into Lead-In and Lead-Out : No
Fill up missing offset samples with silence : Yes
Delete leading and trailing silent blocks : No
Null samples used in CRC calculations : Yes
Used interface : Installed external ASPI interface

Used output format : User Defined Encoder
Selected bitrate : 1024 kBit/s
Quality : High
Add ID3 tag : No
Command line compressor : C:\Program Files\Exact Audio Copy\FLAC\FLAC.EXE
Additional command line options : -V -8 -T “Date=%year%” -T “Genre=%genre%” %source%

TOC of the extracted CD

Track | Start | Length | Start sector | End sector
———————————————————
1 | 0:00.00 | 4:12.10 | 0 | 18909
2 | 4:12.10 | 4:46.60 | 18910 | 40419
3 | 8:58.70 | 4:27.30 | 40420 | 60474
4 | 13:26.25 | 6:25.30 | 60475 | 89379
5 | 19:51.55 | 4:17.35 | 89380 | 108689
6 | 24:09.15 | 4:18.05 | 108690 | 128044
7 | 28:27.20 | 3:55.55 | 128045 | 145724
8 | 32:23.00 | 4:48.55 | 145725 | 167379
9 | 37:11.55 | 5:16.10 | 167380 | 191089
10 | 42:27.65 | 3:36.05 | 191090 | 207294
11 | 46:03.70 | 10:43.00 | 207295 | 255519
12 | 56:46.70 | 4:11.20 | 255520 | 274364
13 | 60:58.15 | 4:40.25 | 274365 | 295389

Range status and errors

Selected range

Filename C:\CDRip by Deminbek\Running Wild – Rogues En Vogue [GUN 206, 82876 64724 2, EU].wav

Peak level 98.8 %
Extraction speed 7.3 X
Range quality 99.9 %
Test CRC AB12494D
Copy CRC AB12494D
Copy OK

No errors occurred

AccurateRip summary

Track 1 cannot be verified as accurate (confidence 2) [C67B6B47], AccurateRip returned [49871BB1] (AR v2)
Track 2 cannot be verified as accurate (confidence 2) [A2FCD10A], AccurateRip returned [1956E12E] (AR v2)
Track 3 cannot be verified as accurate (confidence 2) [2B29666B], AccurateRip returned [41FAC332] (AR v2)
Track 4 cannot be verified as accurate (confidence 2) [B8FDBEF4], AccurateRip returned [809DFD77] (AR v2)
Track 5 cannot be verified as accurate (confidence 2) [336CE87C], AccurateRip returned [7B013CE7] (AR v2)
Track 6 cannot be verified as accurate (confidence 2) [428F474B], AccurateRip returned [9B869AD2] (AR v2)
Track 7 cannot be verified as accurate (confidence 2) [138F03A1], AccurateRip returned [AFB068CA] (AR v2)
Track 8 cannot be verified as accurate (confidence 2) [E5813522], AccurateRip returned [A20158BA] (AR v2)
Track 9 cannot be verified as accurate (confidence 2) [36755EC1], AccurateRip returned [09DCF31F] (AR v2)
Track 10 cannot be verified as accurate (confidence 2) [0FDEADD9], AccurateRip returned [313E055B] (AR v2)
Track 11 cannot be verified as accurate (confidence 2) [EB01CD70], AccurateRip returned [AF039E09] (AR v2)
Track 12 cannot be verified as accurate (confidence 2) [28B8D426], AccurateRip returned [6131D243] (AR v2)
Track 13 cannot be verified as accurate (confidence 2) [0F79023B], AccurateRip returned [A660B609] (AR v2)

No tracks could be verified as accurate
You may have a different pressing from the one(s) in the database

End of status report

—- CUETools DB Plugin V2.1.3

[CTDB TOCID: VryMQqwUkVAr03l7uwOBIrNDNEE-] found, Submit result: VryMQqwUkVAr03l7uwOBIrNDNEE- has been confirmed
[53a17ce6] (1/1) Accurately ripped

==== Log checksum 87EC26137A636481AF50E6853C88B5FCD950FB58BE34F0FD66844EE063489EDC ====

REM GENRE “Heavy Metal”
REM DATE 2005
REM DISCID B30F620D
REM COMMENT “ExactAudioCopy v1.0b3”
PERFORMER “Running Wild”
TITLE “Rogues En Vogue [GUN 206, 82876 64724 2, EU]”
FILE “Running Wild – Rogues En Vogue [GUN 206, 82876 64724 2, EU].flac” WAVE
TRACK 01 AUDIO
TITLE “Draw The Line”
PERFORMER “Running Wild”
FLAGS DCP
INDEX 01 00:00:00
TRACK 02 AUDIO
TITLE “Angel Of Mercy”
PERFORMER “Running Wild”
FLAGS DCP
INDEX 01 04:12:10
TRACK 03 AUDIO
TITLE “Skeleton Dance”
PERFORMER “Running Wild”
FLAGS DCP
INDEX 01 08:58:70
TRACK 04 AUDIO
TITLE “Skull & Bones”
PERFORMER “Running Wild”
FLAGS DCP
INDEX 01 13:26:25
TRACK 05 AUDIO
TITLE “Born Bad, Dying Worse”
PERFORMER “Running Wild”
ISRC 000000000195
FLAGS DCP
INDEX 01 19:51:55
TRACK 06 AUDIO
TITLE “Black Gold”
PERFORMER “Running Wild”
FLAGS DCP
INDEX 01 24:09:15
TRACK 07 AUDIO
TITLE “Soul Vampires”
PERFORMER “Running Wild”
FLAGS DCP
INDEX 01 28:27:20
TRACK 08 AUDIO
TITLE “Rogue En Vogue”
PERFORMER “Running Wild”
FLAGS DCP
INDEX 01 32:23:00
TRACK 09 AUDIO
TITLE “Winged & Feathered”
PERFORMER “Running Wild”
ISRC 000000000371
FLAGS DCP
INDEX 01 37:11:55
TRACK 10 AUDIO
TITLE “Daed Man’s Road”
PERFORMER “Running Wild”
FLAGS DCP
INDEX 01 42:27:65
TRACK 11 AUDIO
TITLE “The War”
PERFORMER “Running Wild”
FLAGS DCP
INDEX 01 46:03:70
TRACK 12 AUDIO
TITLE “Prowling Werewolf [Bonus]”
PERFORMER “Running Wild”
FLAGS DCP
INDEX 01 56:46:70
TRACK 13 AUDIO
TITLE “Apocalyptic Horsemen [Bonus]”
PERFORMER “Running Wild”
FLAGS DCP
INDEX 01 60:58:15


Spread the Download

Leave a Reply

Your email address will not be published. Required fields are marked *

Enter the text from the image below
 

This site uses Akismet to reduce spam. Learn how your comment data is processed.