Running Wild – Rogues En Vogue




Artist: Running Wild
Year: 2005
Genre: Metal
Notes: Discogs
Add. Notes:
Cover incl.: Yes
Encoder: FLAC
Bitrate: ~1000 kBit/s (44.1 kHz/16 Bit/s)
Log & Cue incl.: Yes
Size: 560 MB
Password: “slam” (without ” “)


All Downloads/Hosters are compatible

Download 1
KatFile.com
Rapidgator.net
Turbobit.net
FileFactory.com
Download 2
KatFile.com
Rapidgator.net
Turbobit.net
FileFactory.com

Tracklist:

1 - Draw The Line - 4:13
2 - Angel Of Mercy - 4:46
3 - Skeleton Dance - 4:27
4 - Skull & Bones - 6:23
5 - Born Bad, Dying Worse - 4:19
6 - Black Gold - 4:18
7 - Soul Vampires - 3:56
8 - Rogues En Vogue - 4:47
9 - Winged & Feathered - 5:16
10 - Dead Man's Road - 3:36
11 - The War - 10:38
12 - Prowling Werewolf (Bonus) 
13 - Apocalyptic Horsemen (Bonus) 

EAC-Log, CUE-Sheed & NFO:

Click to open spoiler
Exact Audio Copy V1.0 beta 3 from 29. August 2011

EAC extraction logfile from 1. March 2012, 15:01

Running Wild / Rogues En Vogue [Digi-Pack] [EU, GUN, 206, 2005]

Used drive : HL-DT-STDVDRAM GSA-T50F Adapter: 0 ID: 2

Read mode : Secure
Utilize accurate stream : Yes
Defeat audio cache : Yes
Make use of C2 pointers : No

Read offset correction : 667
Overread into Lead-In and Lead-Out : No
Fill up missing offset samples with silence : Yes
Delete leading and trailing silent blocks : No
Null samples used in CRC calculations : Yes
Used interface : Installed external ASPI interface

Used output format : Internal WAV Routines
Sample format : 44.100 Hz; 16 Bit; Stereo

TOC of the extracted CD

Track | Start | Length | Start sector | End sector
———————————————————
1 | 0:00.00 | 4:13.63 | 0 | 19037
2 | 4:13.63 | 4:46.61 | 19038 | 40548
3 | 9:00.49 | 4:27.30 | 40549 | 60603
4 | 13:28.04 | 6:23.29 | 60604 | 89357
5 | 19:51.33 | 4:19.40 | 89358 | 108822
6 | 24:10.73 | 4:18.00 | 108823 | 128172
7 | 28:28.73 | 3:56.56 | 128173 | 145928
8 | 32:25.54 | 4:47.56 | 145929 | 167509
9 | 37:13.35 | 5:16.09 | 167510 | 191218
10 | 42:29.44 | 3:36.08 | 191219 | 207426
11 | 46:05.52 | 10:40.01 | 207427 | 255427
12 | 56:45.53 | 4:01.20 | 255428 | 273522
13 | 60:46.73 | 3:46.63 | 273523 | 290535

Range status and errors

Selected range

Filename D:\Rip by Ballcrusher\Running Wild – Rogues En Vogue [Digi-Pack] [EU, GUN, 206, 2005].wav

Peak level 98.8 %
Extraction speed 4.1 X
Range quality 99.9 %
Test CRC 85363B48
Copy CRC 85363B48
Copy OK

No errors occurred

AccurateRip summary

Track 1 accurately ripped (confidence 2) [24044A3E] (AR v2)
Track 2 accurately ripped (confidence 2) [059269A9] (AR v2)
Track 3 accurately ripped (confidence 2) [EEAA049C] (AR v2)
Track 4 accurately ripped (confidence 2) [CE0AAE1F] (AR v2)
Track 5 accurately ripped (confidence 2) [815C68D9] (AR v2)
Track 6 accurately ripped (confidence 2) [AA7F5399] (AR v2)
Track 7 accurately ripped (confidence 2) [E1315BB5] (AR v2)
Track 8 accurately ripped (confidence 2) [E2E3D582] (AR v2)
Track 9 accurately ripped (confidence 2) [0034800A] (AR v2)
Track 10 accurately ripped (confidence 2) [075D8A51] (AR v2)
Track 11 accurately ripped (confidence 2) [5CAD7E11] (AR v2)
Track 12 accurately ripped (confidence 2) [EF845636] (AR v2)
Track 13 accurately ripped (confidence 2) [B3800469] (AR v2)

All tracks accurately ripped

End of status report

==== Log checksum EA25F8055A78B8E39C033342608FD050C5DCBED768EDEC6579E6537DBF7F3C89 ====

REM DATE 2005
REM DISCID AC0F210D
REM COMMENT “ExactAudioCopy v1.0b3”
PERFORMER “Running Wild”
TITLE “Rogues En Vogue [Digi-Pack] [EU, GUN, 206, 2005]”
FILE “Running Wild – Rogues En Vogue [Digi-Pack] [EU, GUN, 206, 2005].flac” WAVE
TRACK 01 AUDIO
TITLE “Draw The Line”
PERFORMER “Running Wild”
INDEX 01 00:00:00
TRACK 02 AUDIO
TITLE “Angel Of Mercy”
PERFORMER “Running Wild”
INDEX 00 04:11:63
INDEX 01 04:13:63
TRACK 03 AUDIO
TITLE “Skeleton Dance”
PERFORMER “Running Wild”
INDEX 00 08:58:49
INDEX 01 09:00:49
TRACK 04 AUDIO
TITLE “Skull & Bones”
PERFORMER “Running Wild”
INDEX 00 13:26:04
INDEX 01 13:28:04
TRACK 05 AUDIO
TITLE “Born Bad, Dying Worse”
PERFORMER “Running Wild”
INDEX 01 19:51:33
TRACK 06 AUDIO
TITLE “Black Gold”
PERFORMER “Running Wild”
INDEX 00 24:08:73
INDEX 01 24:10:73
TRACK 07 AUDIO
TITLE “Soul Vampires”
PERFORMER “Running Wild”
INDEX 00 28:26:73
INDEX 01 28:28:73
TRACK 08 AUDIO
TITLE “Rogues En Vogue”
PERFORMER “Running Wild”
INDEX 00 32:22:54
INDEX 01 32:25:54
TRACK 09 AUDIO
TITLE “Winged & Feathered”
PERFORMER “Running Wild”
INDEX 00 37:11:35
INDEX 01 37:13:35
TRACK 10 AUDIO
TITLE “Dead Man’s Road”
PERFORMER “Running Wild”
INDEX 00 42:27:44
INDEX 01 42:29:44
TRACK 11 AUDIO
TITLE “The War”
PERFORMER “Running Wild”
INDEX 00 46:03:52
INDEX 01 46:05:52
TRACK 12 AUDIO
TITLE “Cannonball Tongue [Bonus]”
PERFORMER “Running Wild”
INDEX 00 56:43:53
INDEX 01 56:45:53
TRACK 13 AUDIO
TITLE “Libertalia [Bonus]”
PERFORMER “Running Wild”
INDEX 00 60:44:73
INDEX 01 60:46:73


Leave a Reply

Your email address will not be published. Required fields are marked *

Enter the text from the image below
 

This site uses Akismet to reduce spam. Learn how your comment data is processed.