Running Wild – Resilient (Limited Deluxe Edition)




Artist: Running Wild
Year: 2013
Genre: Metal
Notes: Discogs
Add. Notes: Limited Deluxe Edition
Cover incl.: Yes
Encoder: FLAC
Bitrate: ~1100 kBit/s (44.1 kHz/16 Bit/s)
Log & Cue incl.: Yes
Size: 742,9 MB
Password: “slam” (without ” “)


All Downloads/Hosters are compatible

Download 1
KatFile.com
Turbobit.net
FileFactory.com
Rapidgator.net
Download 2
KatFile.com
Turbobit.net
FileFactory.com
Rapidgator.net

Tracklist:

1 - Soldiers Of Fortune - 4:24
2 - Resilient - 4:42
3 - Adventure Highway - 4:21
4 - The Drift - 4:47
5 - Desert Rose - 5:14
6 - Fireheart - 4:40
7 - Run Riot - 4:33
8 - Down To The Wire - 4:01
9 - Crystal Gold - 4:27
10 - Bloody Island - 9:53
Bonus Tracks:
11 - Payola & Shenanigans - 4:41
12 - Premonition - 4:15

EAC-Log, CUE-Sheed & NFO:

Click to open spoiler
Exact Audio Copy V1.0 beta 3 from 29. August 2011

EAC extraction logfile from 24. February 2014, 15:36

Running Wild / Resilient [SPV 260899 Box-Set]

Used drive : TSSTcorpCDDVDW SH-S223C Adapter: 0 ID: 0

Read mode : Secure
Utilize accurate stream : Yes
Defeat audio cache : Yes
Make use of C2 pointers : No

Read offset correction : 697
Overread into Lead-In and Lead-Out : No
Fill up missing offset samples with silence : Yes
Delete leading and trailing silent blocks : No
Null samples used in CRC calculations : Yes
Used interface : Installed external ASPI interface

Used output format : User Defined Encoder
Selected bitrate : 1024 kBit/s
Quality : High
Add ID3 tag : No
Command line compressor : C:\Program Files (x86)\Exact Audio Copy\Flac\flac.exe
Additional command line options : -V -8 -T “Date=%year%” -T “Genre=%genre%” %source%

TOC of the extracted CD

Track | Start | Length | Start sector | End sector
———————————————————
1 | 0:00.00 | 4:23.12 | 0 | 19736
2 | 4:23.12 | 4:41.31 | 19737 | 40842
3 | 9:04.43 | 4:18.38 | 40843 | 60230
4 | 13:23.06 | 4:45.74 | 60231 | 81679
5 | 18:09.05 | 5:13.01 | 81680 | 105155
6 | 23:22.06 | 4:41.38 | 105156 | 126268
7 | 28:03.44 | 4:33.55 | 126269 | 146798
8 | 32:37.24 | 4:03.73 | 146799 | 165096
9 | 36:41.22 | 4:28.02 | 165097 | 185198
10 | 41:09.24 | 9:55.21 | 185199 | 229844
11 | 51:04.45 | 4:41.15 | 229845 | 250934
12 | 55:45.60 | 4:17.65 | 250935 | 270274

Range status and errors

Selected range

Filename D:\CDRip by Ballcrusher\Running Wild – Resilient [SPV 260899 Box-Set].wav

Peak level 100.0 %
Extraction speed 3.5 X
Range quality 100.0 %
Test CRC FE81AD4E
Copy CRC FE81AD4E
Copy OK

No errors occurred

AccurateRip summary

Track 1 accurately ripped (confidence 11) [65C134E0] (AR v2)
Track 2 accurately ripped (confidence 11) [AA5FE69E] (AR v2)
Track 3 accurately ripped (confidence 11) [B541225C] (AR v2)
Track 4 accurately ripped (confidence 11) [082DCEEB] (AR v2)
Track 5 accurately ripped (confidence 11) [F54B8FBB] (AR v2)
Track 6 accurately ripped (confidence 11) [A34355F4] (AR v2)
Track 7 accurately ripped (confidence 11) [15BF6D8D] (AR v2)
Track 8 accurately ripped (confidence 11) [91CA0F5E] (AR v2)
Track 9 accurately ripped (confidence 11) [2C5B2E50] (AR v2)
Track 10 accurately ripped (confidence 11) [AB676EEF] (AR v2)
Track 11 accurately ripped (confidence 11) [F17D066B] (AR v2)
Track 12 accurately ripped (confidence 11) [8E2BE33F] (AR v2)

All tracks accurately ripped

End of status report

==== Log checksum 29344BD54912A9D7B8A168DE87AE256042CF72D89D09C3BF17161A610C349BF8 ====

REM DATE 2013
REM DISCID A00E130C
REM COMMENT “ExactAudioCopy v1.0b3”
PERFORMER “Running Wild”
TITLE “Resilient [SPV 260899 Box-Set]”
FILE “Running Wild – Resilient [SPV 260899 Box-Set].flac” WAVE
TRACK 01 AUDIO
TITLE “Soldiers Of Fortune”
PERFORMER “Running Wild”
INDEX 01 00:00:00
TRACK 02 AUDIO
TITLE “Resilient”
PERFORMER “Running Wild”
INDEX 00 04:22:13
INDEX 01 04:23:12
TRACK 03 AUDIO
TITLE “Adventure Highway”
PERFORMER “Running Wild”
INDEX 00 09:03:44
INDEX 01 09:04:43
TRACK 04 AUDIO
TITLE “The Drift”
PERFORMER “Running Wild”
INDEX 00 13:22:07
INDEX 01 13:23:06
TRACK 05 AUDIO
TITLE “Desert Rose”
PERFORMER “Running Wild”
INDEX 00 18:08:06
INDEX 01 18:09:05
TRACK 06 AUDIO
TITLE “Fireheart”
PERFORMER “Running Wild”
INDEX 00 23:21:07
INDEX 01 23:22:06
TRACK 07 AUDIO
TITLE “Run Riot”
PERFORMER “Running Wild”
INDEX 00 28:02:45
INDEX 01 28:03:44
TRACK 08 AUDIO
TITLE “Down To The Wire”
PERFORMER “Running Wild”
INDEX 00 32:36:25
INDEX 01 32:37:24
TRACK 09 AUDIO
TITLE “Crystal Gold”
PERFORMER “Running Wild”
INDEX 00 36:40:23
INDEX 01 36:41:22
TRACK 10 AUDIO
TITLE “Bloody Island”
PERFORMER “Running Wild”
INDEX 00 41:08:25
INDEX 01 41:09:24
TRACK 11 AUDIO
TITLE “Payola & Shenanigans [Bonus]”
PERFORMER “Running Wild”
INDEX 00 51:03:46
INDEX 01 51:04:45
TRACK 12 AUDIO
TITLE “Premonition [Bonus]”
PERFORMER “Running Wild”
INDEX 00 55:44:61
INDEX 01 55:45:60


Leave a Reply

Your email address will not be published. Required fields are marked *

This site uses Akismet to reduce spam. Learn how your comment data is processed.