Running Wild – Ready For Boarding




Artist: Running Wild
Year: 1988
Genre: Metal
Notes: Discogs
Add. Notes:
Cover incl.: Yes
Encoder: FLAC
Bitrate: ~900 kBit/s (44.1 kHz/16 Bit/s)
Log & Cue incl.: Yes
Size: 323,36 MB
Password: “slam” (without ” “)


All Downloads/Hosters are compatible

Download 1
Turbobit.net
KatFile.com
Rapidgator.net
Download 2
Turbobit.net
KatFile.com
Rapidgator.net

Tracklist:

1 - Hymn Of Long John Silver - 2:33
2 - Under Jolly Roger - 4:16
3 - Genghis Khan - 4:50
4 - Raise Your Fist - 5:06
5 - Purgatory - 5:20
6 - Mordor - 4:10
7 - Diabolic Force - 4:34
8 - Raw Ride - 4:34
9 - Adrian (S.O.S.) - 2:33
10 - Prisoner Of Our Time - 5:18

EAC-Log, CUE-Sheed & NFO:

Click to open spoiler
Exact Audio Copy V1.0 beta 3 from 29. August 2011

EAC extraction logfile from 13. February 2014, 15:28

Running Wild / Ready For Boarding [Noise, N 0108-3, France]

Used drive : PIONEER DVD-RW DVR-112D Adapter: 0 ID: 0

Read mode : Secure
Utilize accurate stream : Yes
Defeat audio cache : Yes
Make use of C2 pointers : No

Read offset correction : 48
Overread into Lead-In and Lead-Out : No
Fill up missing offset samples with silence : Yes
Delete leading and trailing silent blocks : No
Null samples used in CRC calculations : Yes
Used interface : Installed external ASPI interface

Used output format : User Defined Encoder
Selected bitrate : 1024 kBit/s
Quality : High
Add ID3 tag : No
Command line compressor : C:\Program Files\Exact Audio Copy\FLAC\FLAC.EXE
Additional command line options : -V -8 -T “Date=%year%” -T “Genre=%genre%” %source%

TOC of the extracted CD

Track | Start | Length | Start sector | End sector
———————————————————
1 | 0:00.00 | 2:36.47 | 0 | 11746
2 | 2:36.47 | 4:16.73 | 11747 | 31019
3 | 6:53.45 | 4:14.50 | 31020 | 50119
4 | 11:08.20 | 5:15.55 | 50120 | 73799
5 | 16:24.00 | 5:35.02 | 73800 | 98926
6 | 21:59.02 | 4:24.33 | 98927 | 118759
7 | 26:23.35 | 4:38.25 | 118760 | 139634
8 | 31:01.60 | 4:38.00 | 139635 | 160484
9 | 35:39.60 | 2:35.12 | 160485 | 172121
10 | 38:14.72 | 5:44.23 | 172122 | 197944

Range status and errors

Selected range

Filename C:\CDRip by Deminbek\Running Wild – Ready For Boarding [Noise, N 0108-3, France].wav

Peak level 100.0 %
Extraction speed 6.7 X
Range quality 100.0 %
Test CRC 1E8AF44D
Copy CRC 1E8AF44D
Copy OK

No errors occurred

AccurateRip summary

Track 1 accurately ripped (confidence 2) [44E039C6] (AR v2)
Track 2 accurately ripped (confidence 2) [E5C08129] (AR v2)
Track 3 accurately ripped (confidence 2) [AA76BAA8] (AR v2)
Track 4 accurately ripped (confidence 2) [218E748E] (AR v2)
Track 5 accurately ripped (confidence 2) [C004245F] (AR v2)
Track 6 accurately ripped (confidence 2) [F62AB71B] (AR v2)
Track 7 accurately ripped (confidence 2) [47CDCF76] (AR v2)
Track 8 accurately ripped (confidence 2) [65FF3CAB] (AR v2)
Track 9 accurately ripped (confidence 2) [A40BE986] (AR v2)
Track 10 accurately ripped (confidence 2) [5BE890F2] (AR v2)

All tracks accurately ripped

End of status report

—- CUETools DB Plugin V2.1.3

[CTDB TOCID: yeYd_VkHrI6dkt_nDCVY8nFcmic-] found, Submit result: yeYd_VkHrI6dkt_nDCVY8nFcmic- has been confirmed
[ffb1e113] (3/3) Accurately ripped

==== Log checksum 8FA4D75B53E1F5E5A4E955BA9DD75948C3512FBE80EDEE5870FDB07F813FCDB7 ====

REM GENRE “Heavy Metal”
REM DATE 1988
REM DISCID 850A4F0A
REM COMMENT “ExactAudioCopy v1.0b3”
CATALOG 0000000000000
PERFORMER “Running Wild”
TITLE “Ready For Boarding [Noise, N 0108-3, France]”
FILE “Running Wild – Ready For Boarding [Noise, N 0108-3, France].flac” WAVE
TRACK 01 AUDIO
TITLE “Hymn Of Long John Silver”
PERFORMER “Running Wild”
INDEX 01 00:00:00
TRACK 02 AUDIO
TITLE “Under Jolly Roger”
PERFORMER “Running Wild”
INDEX 01 02:36:47
TRACK 03 AUDIO
TITLE “Genghis Khan”
PERFORMER “Running Wild”
INDEX 01 06:53:45
TRACK 04 AUDIO
TITLE “Raise Your Fist”
PERFORMER “Running Wild”
INDEX 01 11:08:20
TRACK 05 AUDIO
TITLE “Purgatory”
PERFORMER “Running Wild”
INDEX 01 16:24:00
TRACK 06 AUDIO
TITLE “Mordor”
PERFORMER “Running Wild”
INDEX 01 21:59:02
TRACK 07 AUDIO
TITLE “Diabolic Force”
PERFORMER “Running Wild”
INDEX 01 26:23:35
TRACK 08 AUDIO
TITLE “Raw Ride”
PERFORMER “Running Wild”
INDEX 01 31:01:60
TRACK 09 AUDIO
TITLE “Adrian S.O.S.”
PERFORMER “Running Wild”
INDEX 01 35:39:60
TRACK 10 AUDIO
TITLE “Prisoner Of Our Time”
PERFORMER “Running Wild”
INDEX 01 38:14:72


Leave a Reply

Your email address will not be published. Required fields are marked *

Enter the text from the image below
 

This site uses Akismet to reduce spam. Learn how your comment data is processed.