Running Wild – Ready For Boarding (Japanese Edition)




[Total: 0    Average: 0/5]

Artist: Running Wild
Year: 1988/1991
Genre: Metal
Notes: Discogs
Add. Notes: Japanese Edition
Cover incl.: Yes
Encoder: FLAC
Bitrate: ~900 kBit/s (44.1 kHz/16 Bit/s)
Log & Cue incl.: Yes
Size: 357,8 MB
Password: “slam” (without ” “)


All Downloads/Hosters are compatible

Download 1
Share-online.biz
KatFile.com
Rapidgator.net
Download 2
Share-online.biz
KatFile.com
Rapidgator.net

Tracklist:

1 - Hymn Of Long John Silver - 2:33
2 - Under Jolly Roger - 4:16
3 - Genghis Khan - 4:50
4 - Raise Your Fist - 5:06
5 - Purgatory - 5:20
6 - Mordor - 4:10
7 - Diabolic Force - 4:34
8 - Raw Ride - 4:34
9 - Adrian (S.O.S.) - 2:33
10 - Prisoner Of Our Time - 5:18

EAC-Log, CUE-Sheed & NFO:

Click to open spoiler
Exact Audio Copy V1.0 beta 3 from 29. August 2011

EAC extraction logfile from 1. March 2012, 15:50

Running Wild / Ready For Boarding [Japan, Victor, VICP-5058, 1991]

Used drive : HL-DT-STDVDRAM GSA-T50F Adapter: 0 ID: 2

Read mode : Secure
Utilize accurate stream : Yes
Defeat audio cache : Yes
Make use of C2 pointers : No

Read offset correction : 667
Overread into Lead-In and Lead-Out : No
Fill up missing offset samples with silence : Yes
Delete leading and trailing silent blocks : No
Null samples used in CRC calculations : Yes
Used interface : Installed external ASPI interface

Used output format : Internal WAV Routines
Sample format : 44.100 Hz; 16 Bit; Stereo

TOC of the extracted CD

Track | Start | Length | Start sector | End sector
———————————————————
1 | 0:00.37 | 2:36.62 | 37 | 11798
2 | 2:37.24 | 4:16.20 | 11799 | 31018
3 | 6:53.44 | 4:15.25 | 31019 | 50168
4 | 11:08.69 | 5:15.55 | 50169 | 73848
5 | 16:24.49 | 5:35.08 | 73849 | 98981
6 | 21:59.57 | 4:24.35 | 98982 | 118816
7 | 26:24.17 | 4:38.22 | 118817 | 139688
8 | 31:02.39 | 4:37.68 | 139689 | 160531
9 | 35:40.32 | 2:35.12 | 160532 | 172168
10 | 38:15.44 | 5:44.10 | 172169 | 197978

Range status and errors

Selected range

Filename D:\Rip by Ballcrusher\Running Wild – Ready For Boarding [Japan, Victor, VICP-5058, 1991].wav

Peak level 100.0 %
Extraction speed 3.9 X
Range quality 99.9 %
Test CRC 1E62D2DB
Copy CRC 1E62D2DB
Copy OK

No errors occurred

AccurateRip summary

Track 1 not present in database
Track 2 not present in database
Track 3 not present in database
Track 4 not present in database
Track 5 not present in database
Track 6 not present in database
Track 7 not present in database
Track 8 not present in database
Track 9 not present in database
Track 10 not present in database

None of the tracks are present in the AccurateRip database

End of status report

==== Log checksum 389DCB885D5A4F380B1C2DEC2C174C338DC1A0BD19AF4B3A5A8CC1825D32464F ====

REM DATE 1988
REM DISCID 8A0A4F0A
REM COMMENT “ExactAudioCopy v1.0b3”
PERFORMER “Running Wild”
TITLE “Ready For Boarding [Japan, Victor, VICP-5058, 1991]”
FILE “Running Wild – Ready For Boarding [Japan, Victor, VICP-5058, 1991].flac” WAVE
TRACK 01 AUDIO
TITLE “Hymn Of Long John Silver”
PERFORMER “Running Wild”
INDEX 00 00:00:00
INDEX 01 00:00:37
TRACK 02 AUDIO
TITLE “Under Jolly Roger”
PERFORMER “Running Wild”
INDEX 01 02:37:24
TRACK 03 AUDIO
TITLE “Genghis Khan”
PERFORMER “Running Wild”
INDEX 01 06:53:44
TRACK 04 AUDIO
TITLE “Raise Your Fist”
PERFORMER “Running Wild”
INDEX 01 11:08:69
TRACK 05 AUDIO
TITLE “Purgatory”
PERFORMER “Running Wild”
INDEX 01 16:24:49
TRACK 06 AUDIO
TITLE “Mordor”
PERFORMER “Running Wild”
INDEX 01 21:59:57
TRACK 07 AUDIO
TITLE “Diabolic Force”
PERFORMER “Running Wild”
INDEX 01 26:24:17
TRACK 08 AUDIO
TITLE “Raw Ride”
PERFORMER “Running Wild”
INDEX 01 31:02:39
TRACK 09 AUDIO
TITLE “Adrian (S.O.S.)”
PERFORMER “Running Wild”
INDEX 01 35:40:32
TRACK 10 AUDIO
TITLE “Prisoners Of Our Time”
PERFORMER “Running Wild”
INDEX 01 38:15:44


Spread the Download

Leave a Reply

Your email address will not be published. Required fields are marked *

Enter the text from the image below
 

This site uses Akismet to reduce spam. Learn how your comment data is processed.