Running Wild – Port Royal (Japanese Edition)




Artist: Running Wild
Year: 1988/1993
Genre: Metal
Notes: Discogs
Add. Notes: Japanese Edition
Cover incl.: Yes
Encoder: FLAC
Bitrate: ~1000 kBit/s (44.1 kHz/16 Bit/s)
Log & Cue incl.: Yes
Size: 371 MB
Password: “slam” (without ” “)


All Downloads/Hosters are compatible

Download 1
KatFile.com
Turbobit.net
FileFactory.com
Rapidgator.net
Download 2
KatFile.com
Turbobit.net
FileFactory.com
Rapidgator.net

Tracklist:

1 - Intro - 0:48
2 - Port Royal - 4:11
3 - Raging Fire - 3:28
4 - Into The Arena - 3:58
5 - Uaschitschun - 4:52
6 - Final Gates - 2:52
7 - Conquistadores - 4:48
8 - Blown To Kingdom Come - 3:16
9 - Warchild - 3:00
10 - Mutiny - 4:27
11 - Calico Jack - 8:15

EAC-Log, CUE-Sheed & NFO:

Click to open spoiler
Exact Audio Copy V1.0 beta 3 from 29. August 2011

EAC extraction logfile from 1. March 2013, 10:30

Running Wild / Port Royal [VICP-23076]

Used drive : HL-DT-STDVDRAM GSA-T50F Adapter: 0 ID: 2

Read mode : Secure
Utilize accurate stream : Yes
Defeat audio cache : Yes
Make use of C2 pointers : No

Read offset correction : 667
Overread into Lead-In and Lead-Out : No
Fill up missing offset samples with silence : Yes
Delete leading and trailing silent blocks : No
Null samples used in CRC calculations : Yes
Used interface : Installed external ASPI interface

Used output format : Internal WAV Routines
Sample format : 44.100 Hz; 16 Bit; Stereo

TOC of the extracted CD

Track | Start | Length | Start sector | End sector
———————————————————
1 | 0:00.37 | 0:49.40 | 37 | 3751
2 | 0:50.02 | 4:11.35 | 3752 | 22611
3 | 5:01.37 | 3:28.45 | 22612 | 38256
4 | 8:30.07 | 3:58.55 | 38257 | 56161
5 | 12:28.62 | 4:53.50 | 56162 | 78186
6 | 17:22.37 | 2:59.08 | 78187 | 91619
7 | 20:21.45 | 4:49.72 | 91620 | 113366
8 | 25:11.42 | 3:19.48 | 113367 | 128339
9 | 28:31.15 | 3:01.35 | 128340 | 141949
10 | 31:32.50 | 4:27.40 | 141950 | 162014
11 | 36:00.15 | 8:16.60 | 162015 | 199274

Range status and errors

Selected range

Filename D:\Rip by Ballcrusher\Running Wild – Port Royal [VICP-23076].wav

Peak level 100.0 %
Extraction speed 3.8 X
Range quality 99.9 %
Test CRC D9BD8F37
Copy CRC D9BD8F37
Copy OK

No errors occurred

AccurateRip summary

Track 1 cannot be verified as accurate (confidence 2) [D5E19F65], AccurateRip returned [5F36CAFC] (AR v2)
Track 2 cannot be verified as accurate (confidence 2) [1E7EAA34], AccurateRip returned [CAA78173] (AR v2)
Track 3 cannot be verified as accurate (confidence 2) [F5AFD800], AccurateRip returned [74FF18E4] (AR v2)
Track 4 cannot be verified as accurate (confidence 2) [EEB1CBC2], AccurateRip returned [7BF69994] (AR v2)
Track 5 cannot be verified as accurate (confidence 2) [6B30BA61], AccurateRip returned [580D3F94] (AR v2)
Track 6 cannot be verified as accurate (confidence 2) [8131C7C6], AccurateRip returned [1D1694F8] (AR v2)
Track 7 cannot be verified as accurate (confidence 2) [4D9299F4], AccurateRip returned [A1A7E3F8] (AR v2)
Track 8 cannot be verified as accurate (confidence 2) [96767C34], AccurateRip returned [F01F9294] (AR v2)
Track 9 cannot be verified as accurate (confidence 2) [8951630E], AccurateRip returned [FCB402C6] (AR v2)
Track 10 cannot be verified as accurate (confidence 2) [F54EC1DC], AccurateRip returned [1670DD8E] (AR v2)
Track 11 cannot be verified as accurate (confidence 2) [4C6E32E1], AccurateRip returned [6CF130A8] (AR v2)

No tracks could be verified as accurate
You may have a different pressing from the one(s) in the database

End of status report

==== Log checksum EEC43AB6632499C63FECADA0742EDCBFB4EE2FEFD95F006E8EF211CECDF044F1 ====

REM DATE 1988
REM DISCID 6B0A610B
REM COMMENT “ExactAudioCopy v1.0b3”
PERFORMER “Running Wild”
TITLE “Port Royal [VICP-23076]”
FILE “Running Wild – Port Royal [VICP-23076].flac” WAVE
TRACK 01 AUDIO
TITLE “Intro”
PERFORMER “Running Wild”
INDEX 00 00:00:00
INDEX 01 00:00:37
TRACK 02 AUDIO
TITLE “Port Royal”
PERFORMER “Running Wild”
INDEX 01 00:50:02
TRACK 03 AUDIO
TITLE “Raging Fire”
PERFORMER “Running Wild”
INDEX 01 05:01:37
TRACK 04 AUDIO
TITLE “Into The Arena”
PERFORMER “Running Wild”
INDEX 01 08:30:07
TRACK 05 AUDIO
TITLE “Uaschitschun”
PERFORMER “Running Wild”
INDEX 01 12:28:62
TRACK 06 AUDIO
TITLE “Final Gates”
PERFORMER “Running Wild”
INDEX 01 17:22:37
TRACK 07 AUDIO
TITLE “Conquistadores”
PERFORMER “Running Wild”
INDEX 00 20:20:50
INDEX 01 20:21:45
TRACK 08 AUDIO
TITLE “Blown To Kingdom Come”
PERFORMER “Running Wild”
INDEX 01 25:11:42
TRACK 09 AUDIO
TITLE “Warchild”
PERFORMER “Running Wild”
INDEX 01 28:31:15
TRACK 10 AUDIO
TITLE “Mutiny”
PERFORMER “Running Wild”
INDEX 01 31:32:50
TRACK 11 AUDIO
TITLE “Calico Jack”
PERFORMER “Running Wild”
INDEX 01 36:00:15


Leave a Reply

Your email address will not be published. Required fields are marked *

Enter the text from the image below
 

This site uses Akismet to reduce spam. Learn how your comment data is processed.