Running Wild – Port Royal




[Total: 0    Average: 0/5]

Artist: Running Wild
Year: 1988
Genre: Metal
Notes: Discogs
Add. Notes:
Cover incl.: Yes
Encoder: FLAC
Bitrate: ~900 kBit/s (44.1 kHz/16 Bit/s)
Log & Cue incl.: Yes
Size: 326,8 MB
Password: “slam” (without ” “)


All Downloads/Hosters are compatible

Download 1
Share-online.biz
KatFile.com
Rapidgator.net
Download 2
Share-online.biz
KatFile.com
Rapidgator.net

Tracklist:

1 - Intro - 0:50
2 - Port Royal - 4:12
3 - Raging Fire - 3:28
4 - Into The Arena - 3:59
5 - Uaschitschun - 4:53
6 - Final Gates - 2:59
7 - Conquistadores - 4:50
8 - Blown To Kingdom Come - 3:20
9 - Warchild - 3:01
10 - Mutiny - 4:27
11 - Calico Jack - 8:15

EAC-Log, CUE-Sheed & NFO:

Click to open spoiler
Exact Audio Copy V1.0 beta 3 from 29. August 2011

EAC extraction logfile from 1. March 2013, 11:21

Running Wild / Port Royal [USA, WK 45179]

Used drive : HL-DT-STDVDRAM GSA-T50F Adapter: 0 ID: 2

Read mode : Secure
Utilize accurate stream : Yes
Defeat audio cache : Yes
Make use of C2 pointers : No

Read offset correction : 667
Overread into Lead-In and Lead-Out : No
Fill up missing offset samples with silence : Yes
Delete leading and trailing silent blocks : No
Null samples used in CRC calculations : Yes
Used interface : Installed external ASPI interface

Used output format : Internal WAV Routines
Sample format : 44.100 Hz; 16 Bit; Stereo

TOC of the extracted CD

Track | Start | Length | Start sector | End sector
———————————————————
1 | 0:00.00 | 0:50.00 | 0 | 3749
2 | 0:50.00 | 4:12.00 | 3750 | 22649
3 | 5:02.00 | 3:28.12 | 22650 | 38261
4 | 8:30.12 | 3:59.13 | 38262 | 56199
5 | 12:29.25 | 4:53.20 | 56200 | 78194
6 | 17:22.45 | 2:59.35 | 78195 | 91654
7 | 20:22.05 | 4:49.70 | 91655 | 113399
8 | 25:12.00 | 3:19.62 | 113400 | 128386
9 | 28:31.62 | 3:00.70 | 128387 | 141956
10 | 31:32.57 | 4:27.30 | 141957 | 162011
11 | 36:00.12 | 8:14.63 | 162012 | 199124

Range status and errors

Selected range

Filename D:\Rip by Ballcrusher\Running Wild – Port Royal [USA, WK 45179].wav

Peak level 94.0 %
Extraction speed 1.9 X
Range quality 99.9 %
Test CRC C5313CCA
Copy CRC C5313CCA
Copy OK

No errors occurred

AccurateRip summary

Track 1 accurately ripped (confidence 3) [BB44FA0D] (AR v1)
Track 2 accurately ripped (confidence 3) [86DBA985] (AR v1)
Track 3 accurately ripped (confidence 3) [108D624A] (AR v1)
Track 4 accurately ripped (confidence 3) [719031D8] (AR v1)
Track 5 accurately ripped (confidence 3) [DEFB7361] (AR v1)
Track 6 accurately ripped (confidence 3) [2E3AE715] (AR v1)
Track 7 accurately ripped (confidence 3) [64D3B585] (AR v1)
Track 8 accurately ripped (confidence 3) [D8EDFCF0] (AR v1)
Track 9 accurately ripped (confidence 3) [39777C24] (AR v1)
Track 10 accurately ripped (confidence 3) [BD68C5C3] (AR v1)
Track 11 accurately ripped (confidence 3) [6E2ABEB7] (AR v1)

All tracks accurately ripped

End of status report

==== Log checksum D34376A70F4D53E5A50CEDFD3C29EAB0DA4C205BC72065A523094F777C34E32C ====

REM DATE 1988
REM DISCID 6F0A5F0B
REM COMMENT “ExactAudioCopy v1.0b3”
PERFORMER “Running Wild”
TITLE “Port Royal [USA, WK 45179]”
FILE “Running Wild – Port Royal [USA, WK 45179].flac” WAVE
TRACK 01 AUDIO
TITLE “Intro”
PERFORMER “Running Wild”
INDEX 01 00:00:00
TRACK 02 AUDIO
TITLE “Port Royal”
PERFORMER “Running Wild”
INDEX 01 00:50:00
TRACK 03 AUDIO
TITLE “Raging Fire”
PERFORMER “Running Wild”
INDEX 01 05:02:00
TRACK 04 AUDIO
TITLE “Into The Arena”
PERFORMER “Running Wild”
INDEX 01 08:30:12
TRACK 05 AUDIO
TITLE “Uaschitschun”
PERFORMER “Running Wild”
INDEX 01 12:29:25
TRACK 06 AUDIO
TITLE “Final Gates”
PERFORMER “Running Wild”
INDEX 01 17:22:45
TRACK 07 AUDIO
TITLE “Conquistadores”
PERFORMER “Running Wild”
INDEX 01 20:22:05
TRACK 08 AUDIO
TITLE “Blown To Kingdom Come”
PERFORMER “Running Wild”
INDEX 01 25:12:00
TRACK 09 AUDIO
TITLE “Warchild”
PERFORMER “Running Wild”
INDEX 01 28:31:62
TRACK 10 AUDIO
TITLE “Mutiny”
PERFORMER “Running Wild”
INDEX 01 31:32:57
TRACK 11 AUDIO
TITLE “Calico Jack”
PERFORMER “Running Wild”
INDEX 01 36:00:12


Spread the Download

Leave a Reply

Your email address will not be published. Required fields are marked *

Enter the text from the image below
 

This site uses Akismet to reduce spam. Learn how your comment data is processed.