Running Wild – Pile Of Skulls (Remastered)




No Cover available


Artist: Running Wild
Year: 1992/1999
Genre: Metal
Notes: Discogs
Add. Notes: Remastered
Watch Songs on: YouTube
Cover incl.: Yes
Encoder: FLAC
Bitrate: ~1000 kBit/s (44.1 kHz/16 Bit/s)
Log & Cue incl.: Yes/Yes
Size: 667,5 MB
Password: “slam” (without ” “)


All Downloads/Hosters are compatible

Download 1
KatFile.com
Turbobit.net
Rapidgator.net
FileFactory.com
Download 2
KatFile.com
Turbobit.net
Rapidgator.net
FileFactory.com

Tracklist:

1 Chamber Of Lies 2:23
2 Whirlwind 4:52
3 Sinister Eyes 5:07
4 Black Wings Of Death 5:17
5 Fistful Of Dynamite 4:06
6 Roaring Thunder 5:58
7 Pile Of Skulls 4:39
8 Lead Or Gold 5:08
9 White Buffalo 5:17
10 Jennings' Revenge 4:18
11 Treasure Island 11:14

Bonus Tracks:
12 Beggar's Night 5:01
13 Hanged, Drown And Quartered 4:38
14 Win Or Be Drowned 4:17
15 Uaschitschun '92 4:53

EAC-Log, CUE-Sheed & NFO:

Click to open spoiler
Exact Audio Copy V1.0 beta 3 from 29. August 2011

EAC extraction logfile from 1. March 2013, 14:13

Running Wild / Pile Of Skulls [Remaster] [UK, N 0322-2]

Used drive : HL-DT-STDVDRAM GSA-T50F Adapter: 0 ID: 2

Read mode : Secure
Utilize accurate stream : Yes
Defeat audio cache : Yes
Make use of C2 pointers : No

Read offset correction : 667
Overread into Lead-In and Lead-Out : No
Fill up missing offset samples with silence : Yes
Delete leading and trailing silent blocks : No
Null samples used in CRC calculations : Yes
Used interface : Installed external ASPI interface

Used output format : Internal WAV Routines
Sample format : 44.100 Hz; 16 Bit; Stereo

TOC of the extracted CD

Track | Start | Length | Start sector | End sector
———————————————————
1 | 0:00.00 | 2:21.73 | 0 | 10647
2 | 2:21.73 | 4:52.25 | 10648 | 32572
3 | 7:14.23 | 5:06.48 | 32573 | 55570
4 | 12:20.71 | 5:17.64 | 55571 | 79409
5 | 17:38.60 | 4:06.19 | 79410 | 97878
6 | 21:45.04 | 5:56.70 | 97879 | 124648
7 | 27:41.74 | 4:39.62 | 124649 | 145635
8 | 32:21.61 | 5:07.22 | 145636 | 168682
9 | 37:29.08 | 5:17.22 | 168683 | 192479
10 | 42:46.30 | 4:18.17 | 192480 | 211846
11 | 47:04.47 | 11:14.39 | 211847 | 262435
12 | 58:19.11 | 4:57.52 | 262436 | 284762
13 | 63:16.63 | 4:39.14 | 284763 | 305701
14 | 67:56.02 | 4:17.60 | 305702 | 325036
15 | 72:13.62 | 5:02.11 | 325037 | 347697

Range status and errors

Selected range

Filename D:\Rip by Ballcrusher\Running Wild – Pile Of Skulls [Remaster] [UK, N 0322-2].wav

Peak level 99.4 %
Extraction speed 4.1 X
Range quality 100.0 %
Test CRC 6886F0FA
Copy CRC 6886F0FA
Copy OK

No errors occurred

AccurateRip summary

Track 1 accurately ripped (confidence 4) [27BE9744] (AR v1)
Track 2 accurately ripped (confidence 4) [6879C56F] (AR v1)
Track 3 accurately ripped (confidence 4) [62F517EC] (AR v1)
Track 4 accurately ripped (confidence 4) [D8DB557A] (AR v1)
Track 5 accurately ripped (confidence 4) [7EB20BD3] (AR v1)
Track 6 accurately ripped (confidence 4) [88DDF034] (AR v1)
Track 7 accurately ripped (confidence 4) [1117C21C] (AR v1)
Track 8 accurately ripped (confidence 4) [D9531D3A] (AR v1)
Track 9 accurately ripped (confidence 4) [8222C5FA] (AR v1)
Track 10 accurately ripped (confidence 4) [6204FD21] (AR v1)
Track 11 accurately ripped (confidence 4) [F2A4E2D8] (AR v1)
Track 12 accurately ripped (confidence 4) [2FC30E1A] (AR v1)
Track 13 accurately ripped (confidence 4) [BF9A6F38] (AR v1)
Track 14 accurately ripped (confidence 4) [86F75E2D] (AR v1)
Track 15 accurately ripped (confidence 4) [D2254572] (AR v1)

All tracks accurately ripped

End of status report

==== Log checksum 8D8846EE02A71A68CD13118E37B1A0F5925F6C86EBD34B8737665E4130EEF400 ====

REM DATE 1992
REM DISCID CE121B0F
REM COMMENT “ExactAudioCopy v1.0b3”
PERFORMER “Running Wild”
TITLE “Pile Of Skulls [Remaster] [UK, N 0322-2]”
FILE “Running Wild – Pile Of Skulls [Remaster] [UK, N 0322-2].flac” WAVE
TRACK 01 AUDIO
TITLE “Chamber Of Lies”
PERFORMER “Running Wild”
INDEX 01 00:00:00
TRACK 02 AUDIO
TITLE “Whirlwind”
PERFORMER “Running Wild”
INDEX 01 02:21:73
TRACK 03 AUDIO
TITLE “Sinister Eyes”
PERFORMER “Running Wild”
INDEX 01 07:14:23
TRACK 04 AUDIO
TITLE “Black Wings Of Death”
PERFORMER “Running Wild”
INDEX 01 12:20:71
TRACK 05 AUDIO
TITLE “Fistful Of Dynamite”
PERFORMER “Running Wild”
INDEX 00 17:37:60
INDEX 01 17:38:60
TRACK 06 AUDIO
TITLE “Roaring Thunder”
PERFORMER “Running Wild”
INDEX 00 21:44:04
INDEX 01 21:45:04
TRACK 07 AUDIO
TITLE “Pile Of Skulls”
PERFORMER “Running Wild”
INDEX 01 27:41:74
TRACK 08 AUDIO
TITLE “Lead Or Gold”
PERFORMER “Running Wild”
INDEX 00 32:21:24
INDEX 01 32:21:61
TRACK 09 AUDIO
TITLE “White Buffalo”
PERFORMER “Running Wild”
INDEX 01 37:29:08
TRACK 10 AUDIO
TITLE “Jennings’ Revenge”
PERFORMER “Running Wild”
INDEX 00 42:45:68
INDEX 01 42:46:30
TRACK 11 AUDIO
TITLE “Treasure Island”
PERFORMER “Running Wild”
INDEX 01 47:04:47
TRACK 12 AUDIO
TITLE “Beggars’ Night [Bonus]”
PERFORMER “Running Wild”
INDEX 00 58:18:11
INDEX 01 58:19:11
TRACK 13 AUDIO
TITLE “Hanged, Drawn And Quartered [Bonus]”
PERFORMER “Running Wild”
INDEX 01 63:16:63
TRACK 14 AUDIO
TITLE “Win Or Be Drowned [Bonus]”
PERFORMER “Running Wild”
INDEX 01 67:56:02
TRACK 15 AUDIO
TITLE “Uaschitschun ’92 [Bonus]”
PERFORMER “Running Wild”
INDEX 01 72:13:62


0

Publication author

offline 4 days

Chaos

3
Comments: 4Publics: 3565Registration: 02-02-2019
Spread the Download

Leave a Reply

Your email address will not be published. Required fields are marked *

Enter the text from the image below
 

This site uses Akismet to reduce spam. Learn how your comment data is processed.