Running Wild – Pile Of Skulls (Japanese Edition)




No Cover available

Artist: Running Wild
Year: 1992
Genre: Rock
Notes: Discogs
Add. Notes: Japanese Edition
Watch Songs on: YouTube
Cover incl.: Yes
Encoder: FLAC
Bitrate: ~1000 kBit/s (44.1 kHz/16 Bit/s)
Log & Cue incl.: Yes/Yes
Size: 564,7 MB
Password: “slam” (without ” “)


All Downloads/Hosters are compatible

Download 1
KatFile.com
Turbobit.net
Rapidgator.net
FileFactory.com
Download 2
KatFile.com
Turbobit.net
Rapidgator.net
FileFactory.com

Tracklist:

1 Chamber Of Lies 2:22
2 Whirlwind 4:52
3 Sinister Eyes 5:06
4 Black Wings Of Death 5:17
5 Fistful Of Dynamite 4:06
6 Roaring Thunder 5:57
7 Pile Of Skulls 4:39
8 Lead Or Gold 5:07
9 White Buffalo 5:17
10 Jennings' Revenge 4:18
11 Treasure Island 11:14

Bonus Track For Japan
12 Beggar's Night 5:00

EAC-Log, CUE-Sheed & NFO:

Click to open spoiler
Exact Audio Copy V1.0 beta 3 from 29. August 2011

EAC extraction logfile from 1. March 2012, 16:24

Running Wild / Pile Of Skulls [Japan, Victor, VICP-5203, 1992]

Used drive : HL-DT-STDVDRAM GSA-T50F Adapter: 0 ID: 2

Read mode : Secure
Utilize accurate stream : Yes
Defeat audio cache : Yes
Make use of C2 pointers : No

Read offset correction : 667
Overread into Lead-In and Lead-Out : No
Fill up missing offset samples with silence : Yes
Delete leading and trailing silent blocks : No
Null samples used in CRC calculations : Yes
Used interface : Installed external ASPI interface

Used output format : Internal WAV Routines
Sample format : 44.100 Hz; 16 Bit; Stereo

TOC of the extracted CD

Track | Start | Length | Start sector | End sector
———————————————————
1 | 0:00.37 | 2:22.58 | 37 | 10744
2 | 2:23.20 | 4:52.20 | 10745 | 32664
3 | 7:15.40 | 5:06.50 | 32665 | 55664
4 | 12:22.15 | 5:17.37 | 55665 | 79476
5 | 17:39.52 | 4:06.15 | 79477 | 97941
6 | 21:45.67 | 5:57.15 | 97942 | 124731
7 | 27:43.07 | 4:39.60 | 124732 | 145716
8 | 32:22.67 | 5:07.20 | 145717 | 168761
9 | 37:30.12 | 5:17.25 | 168762 | 192561
10 | 42:47.37 | 4:18.23 | 192562 | 211934
11 | 47:05.60 | 11:14.07 | 211935 | 262491
12 | 58:19.67 | 5:00.33 | 262492 | 285024

Range status and errors

Selected range

Filename D:\Rip by Ballcrusher\Running Wild – Pile Of Skulls [Japan, Victor, VICP-5203, 1992].wav

Peak level 98.8 %
Extraction speed 4.3 X
Range quality 100.0 %
Test CRC 018BBF54
Copy CRC 018BBF54
Copy OK

No errors occurred

AccurateRip summary

Track 1 cannot be verified as accurate (confidence 3) [5B6005A5], AccurateRip returned [4DEE6A38] (AR v2)
Track 2 cannot be verified as accurate (confidence 3) [B8E30EF7], AccurateRip returned [B3304E24] (AR v2)
Track 3 cannot be verified as accurate (confidence 3) [6BFAF894], AccurateRip returned [CD15E874] (AR v2)
Track 4 cannot be verified as accurate (confidence 3) [99D3C652], AccurateRip returned [E31921D2] (AR v2)
Track 5 cannot be verified as accurate (confidence 3) [5ECBDCD5], AccurateRip returned [DB43F8B4] (AR v2)
Track 6 cannot be verified as accurate (confidence 3) [5E1C832F], AccurateRip returned [E0F970FB] (AR v2)
Track 7 cannot be verified as accurate (confidence 3) [BF37D78C], AccurateRip returned [E8D0E933] (AR v2)
Track 8 cannot be verified as accurate (confidence 3) [EE9110CD], AccurateRip returned [81F2103E] (AR v2)
Track 9 cannot be verified as accurate (confidence 3) [8621F0A3], AccurateRip returned [CFA3E903] (AR v2)
Track 10 cannot be verified as accurate (confidence 3) [A7F35A77], AccurateRip returned [86DC0B55] (AR v2)
Track 11 cannot be verified as accurate (confidence 3) [8840CBA2], AccurateRip returned [16059582] (AR v2)
Track 12 cannot be verified as accurate (confidence 3) [569D3F23], AccurateRip returned [9C057C1E] (AR v2)

No tracks could be verified as accurate
You may have a different pressing from the one(s) in the database

End of status report

==== Log checksum 8D6B63E22EC0275F8EA72569A6CC1E6C1170F9F22391ECE87849DEEBF91F933A ====

REM DATE 1992
REM DISCID 9D0ED80C
REM COMMENT “ExactAudioCopy v1.0b3”
PERFORMER “Running Wild”
TITLE “Pile Of Skulls [Japan, Victor, VICP-5203, 1992]”
FILE “Running Wild – Pile Of Skulls [Japan, Victor, VICP-5203, 1992].flac” WAVE
TRACK 01 AUDIO
TITLE “Chamber Of Lies”
PERFORMER “Running Wild”
INDEX 00 00:00:00
INDEX 01 00:00:37
TRACK 02 AUDIO
TITLE “Whirlwind”
PERFORMER “Running Wild”
INDEX 01 02:23:20
TRACK 03 AUDIO
TITLE “Sinister Eyes”
PERFORMER “Running Wild”
INDEX 01 07:15:40
TRACK 04 AUDIO
TITLE “Black Wings Of Death”
PERFORMER “Running Wild”
INDEX 01 12:22:15
TRACK 05 AUDIO
TITLE “Fistful Of Dynamite”
PERFORMER “Running Wild”
INDEX 01 17:39:52
TRACK 06 AUDIO
TITLE “Roaring Thunder”
PERFORMER “Running Wild”
INDEX 01 21:45:67
TRACK 07 AUDIO
TITLE “Pile Of Skulls”
PERFORMER “Running Wild”
INDEX 01 27:43:07
TRACK 08 AUDIO
TITLE “Lead Or Gold”
PERFORMER “Running Wild”
INDEX 01 32:22:67
TRACK 09 AUDIO
TITLE “White Buffalo”
PERFORMER “Running Wild”
INDEX 01 37:30:12
TRACK 10 AUDIO
TITLE “Jennings Revenge”
PERFORMER “Running Wild”
INDEX 01 42:47:37
TRACK 11 AUDIO
TITLE “Treasure Island”
PERFORMER “Running Wild”
INDEX 01 47:05:60
TRACK 12 AUDIO
TITLE “Beggars Night [Bonus]”
PERFORMER “Running Wild”
INDEX 01 58:19:67


Leave a Reply

Your email address will not be published. Required fields are marked *

Enter the text from the image below
 

This site uses Akismet to reduce spam. Learn how your comment data is processed.