Running Wild – Masquerade




[Total: 0    Average: 0/5]

Artist: Running Wild
Year: 1995
Genre: Metal
Notes: Discogs
Add. Notes:
Cover incl.: Yes
Encoder: FLAC
Bitrate: ~1100 kBit/s (44.1 kHz/16 Bit/s)
Log & Cue incl.: Yes
Size: 462,29 MB
Password: “slam” (without ” “)


All Downloads/Hosters are compatible

Download 1
Share-online.biz
KatFile.com
Rapidgator.net
NitroFlare.com
Download 2
Share-online.biz
KatFile.com
Rapidgator.net
NitroFlare.com

Tracklist:

1 - The Contract / The Crypts Of Hades - 2:20
2 - Masquerade - 4:20
3 - Demonized - 4:41
4 - Black Soul - 5:18
5 - Lions Of The Sea - 5:49
6 - Rebel At Heart - 5:45
7 - Wheel Of Doom - 4:03
8 - Metalhead - 4:57
9 - Soleil Royal - 4:45
10 - Men In Black - 4:36
11 - Underworld - 6:15

EAC-Log, CUE-Sheed & NFO:

Click to open spoiler
Exact Audio Copy V1.0 beta 3 from 29. August 2011

EAC extraction logfile from 1. March 2012, 14:27

Running Wild / Masquerade [France, Noise, N 0261-2, 1995]

Used drive : HL-DT-STDVDRAM GSA-T50F Adapter: 0 ID: 2

Read mode : Secure
Utilize accurate stream : Yes
Defeat audio cache : Yes
Make use of C2 pointers : No

Read offset correction : 667
Overread into Lead-In and Lead-Out : No
Fill up missing offset samples with silence : Yes
Delete leading and trailing silent blocks : No
Null samples used in CRC calculations : Yes
Used interface : Installed external ASPI interface

Used output format : Internal WAV Routines
Sample format : 44.100 Hz; 16 Bit; Stereo

TOC of the extracted CD

Track | Start | Length | Start sector | End sector
———————————————————
1 | 0:01.00 | 2:20.15 | 75 | 10589
2 | 2:21.15 | 4:20.37 | 10590 | 30126
3 | 6:41.52 | 4:41.03 | 30127 | 51204
4 | 11:22.55 | 5:17.52 | 51205 | 75031
5 | 16:40.32 | 5:49.33 | 75032 | 101239
6 | 22:29.65 | 5:45.37 | 101240 | 127151
7 | 28:15.27 | 4:02.58 | 127152 | 145359
8 | 32:18.10 | 4:57.07 | 145360 | 167641
9 | 37:15.17 | 4:44.58 | 167642 | 188999
10 | 42:00.00 | 4:36.03 | 189000 | 209702
11 | 46:36.03 | 6:14.66 | 209703 | 237818

Range status and errors

Selected range

Filename D:\Rip by Ballcrusher\Running Wild – Masquerade [France, Noise, N 0261-2, 1995].wav

Peak level 100.0 %
Extraction speed 4.0 X
Range quality 99.9 %
Test CRC 43220185
Copy CRC 43220185
Copy OK

No errors occurred

AccurateRip summary

Track 1 accurately ripped (confidence 2) [8664312D] (AR v2)
Track 2 accurately ripped (confidence 2) [7EC7C09A] (AR v2)
Track 3 accurately ripped (confidence 2) [A998197C] (AR v2)
Track 4 accurately ripped (confidence 2) [16107376] (AR v2)
Track 5 accurately ripped (confidence 2) [A2A6DF1D] (AR v2)
Track 6 accurately ripped (confidence 2) [CAE3775B] (AR v2)
Track 7 accurately ripped (confidence 2) [1E2AA5A3] (AR v2)
Track 8 accurately ripped (confidence 2) [7BEAE756] (AR v2)
Track 9 accurately ripped (confidence 2) [8CFBA104] (AR v2)
Track 10 accurately ripped (confidence 2) [87451C22] (AR v2)
Track 11 accurately ripped (confidence 2) [5F07A5C3] (AR v2)

All tracks accurately ripped

End of status report

==== Log checksum 0B054614BDE76EEF03B612B5F5E753225DC9010024007D351E3ECAB9CC9CCF77 ====

REM DATE 1995
REM DISCID 890C610B
REM COMMENT “ExactAudioCopy v1.0b3”
PERFORMER “Running Wild”
TITLE “Masquerade [France, Noise, N 0261-2, 1995]”
FILE “Running Wild – Masquerade [France, Noise, N 0261-2, 1995].flac” WAVE
TRACK 01 AUDIO
TITLE “The Contract / The Crypts Of Hades”
PERFORMER “Running Wild”
INDEX 00 00:00:00
INDEX 01 00:01:00
TRACK 02 AUDIO
TITLE “Masquerade”
PERFORMER “Running Wild”
INDEX 01 02:21:15
TRACK 03 AUDIO
TITLE “Demonized”
PERFORMER “Running Wild”
INDEX 00 06:41:35
INDEX 01 06:41:52
TRACK 04 AUDIO
TITLE “Black Soul”
PERFORMER “Running Wild”
INDEX 00 11:22:15
INDEX 01 11:22:55
TRACK 05 AUDIO
TITLE “Lions Of The Sea”
PERFORMER “Running Wild”
INDEX 00 16:40:11
INDEX 01 16:40:32
TRACK 06 AUDIO
TITLE “Rebel At Heart”
PERFORMER “Running Wild”
INDEX 00 22:29:54
INDEX 01 22:29:65
TRACK 07 AUDIO
TITLE “Wheel Of Doom”
PERFORMER “Running Wild”
INDEX 00 28:15:01
INDEX 01 28:15:27
TRACK 08 AUDIO
TITLE “Metalhead”
PERFORMER “Running Wild”
INDEX 00 32:17:54
INDEX 01 32:18:10
TRACK 09 AUDIO
TITLE “Soleil Royal”
PERFORMER “Running Wild”
INDEX 00 37:14:13
INDEX 01 37:15:17
TRACK 10 AUDIO
TITLE “Men In Black”
PERFORMER “Running Wild”
INDEX 00 41:59:11
INDEX 01 42:00:00
TRACK 11 AUDIO
TITLE “Underworld”
PERFORMER “Running Wild”
INDEX 01 46:36:03


Spread the Download

Leave a Reply

Your email address will not be published. Required fields are marked *

Enter the text from the image below
 

This site uses Akismet to reduce spam. Learn how your comment data is processed.