Running Wild – Masquerade (Remastered)




Artist: Running Wild
Year: 1999
Genre: Metal
Notes: Discogs
Add. Notes: Remastered
Cover incl.: Yes
Encoder: FLAC
Bitrate: ~1100 kBit/s (44.1 kHz/16 Bit/s)
Log & Cue incl.: Yes
Size: 583,2 MB
Password: “slam” (without ” “)


All Downloads/Hosters are compatible

Download 1
KatFile.com
Turbobit.net
FileFactory.com
Rapidgator.net
Download 2
KatFile.com
Turbobit.net
FileFactory.com
Rapidgator.net

Tracklist:

1 The Contract / The Crypts Of Hades 2:20
2 Masquerade 4:20
3 Demonized 4:41
4 Black Soul 5:18
5 Lions Of The Sea 5:49
6 Rebel At Heart 5:45
7 Wheel Of Doom 4:03
8 Metalhead 4:57
9 Soleil Royal 4:45
10 Men In Black 4:36
11 Underworld 6:15
12 Iron Heads (Bonus) 3:45
13 Bones To Ashes (Bonus) 5:17

EAC-Log, CUE-Sheed & NFO:

Click to open spoiler
Exact Audio Copy V1.0 beta 3 from 29. August 2011

EAC extraction logfile from 1. March 2013, 14:45

Running Wild / Masquerade [Remaster] [UK, Modern Music, N 0318-2]

Used drive : HL-DT-STDVDRAM GSA-T50F Adapter: 0 ID: 2

Read mode : Secure
Utilize accurate stream : Yes
Defeat audio cache : Yes
Make use of C2 pointers : No

Read offset correction : 667
Overread into Lead-In and Lead-Out : No
Fill up missing offset samples with silence : Yes
Delete leading and trailing silent blocks : No
Null samples used in CRC calculations : Yes
Used interface : Installed external ASPI interface

Used output format : Internal WAV Routines
Sample format : 44.100 Hz; 16 Bit; Stereo

TOC of the extracted CD

Track | Start | Length | Start sector | End sector
———————————————————
1 | 0:00.00 | 2:16.10 | 0 | 10209
2 | 2:16.10 | 4:13.44 | 10210 | 29228
3 | 6:29.54 | 4:41.55 | 29229 | 50358
4 | 11:11.34 | 5:17.39 | 50359 | 74172
5 | 16:28.73 | 5:52.37 | 74173 | 100609
6 | 22:21.35 | 5:53.62 | 100610 | 127146
7 | 28:15.22 | 4:04.60 | 127147 | 145506
8 | 32:20.07 | 4:56.33 | 145507 | 167739
9 | 37:16.40 | 4:45.14 | 167740 | 189128
10 | 42:01.54 | 4:47.01 | 189129 | 210654
11 | 46:48.55 | 6:16.05 | 210655 | 238859
12 | 53:04.60 | 3:44.42 | 238860 | 255701
13 | 56:49.27 | 5:17.27 | 255702 | 279503

Range status and errors

Selected range

Filename D:\Rip by Ballcrusher\Running Wild – Masquerade [Remaster] [UK, Modern Music, N 0318-2].wav

Peak level 100.0 %
Extraction speed 4.2 X
Range quality 99.9 %
Test CRC 627EDA11
Copy CRC 627EDA11
Copy OK

No errors occurred

AccurateRip summary

Track 1 accurately ripped (confidence 3) [18FCD33C] (AR v1)
Track 2 accurately ripped (confidence 3) [A5EEDB31] (AR v1)
Track 3 accurately ripped (confidence 3) [DBB0B147] (AR v1)
Track 4 accurately ripped (confidence 3) [A3A947D9] (AR v1)
Track 5 accurately ripped (confidence 3) [480C81C9] (AR v1)
Track 6 accurately ripped (confidence 3) [573F5FDB] (AR v1)
Track 7 accurately ripped (confidence 3) [37EE1BEA] (AR v1)
Track 8 accurately ripped (confidence 3) [65F21A66] (AR v1)
Track 9 accurately ripped (confidence 3) [2DF08F75] (AR v1)
Track 10 accurately ripped (confidence 3) [E9F4A80A] (AR v1)
Track 11 accurately ripped (confidence 3) [EA7D0042] (AR v1)
Track 12 accurately ripped (confidence 3) [737B9671] (AR v1)
Track 13 accurately ripped (confidence 3) [EE9FB474] (AR v1)

All tracks accurately ripped

End of status report

==== Log checksum A8A8D9EE7BBA7E72609D9F2ED49172FFB167C47B7998E512B5FEC79648F6DF98 ====

REM DATE 1995
REM DISCID B00E8E0D
REM COMMENT “ExactAudioCopy v1.0b3”
PERFORMER “Running Wild”
TITLE “Masquerade [Remaster] [UK, Modern Music, N 0318-2]”
FILE “Running Wild – Masquerade [Remaster] [UK, Modern Music, N 0318-2].flac” WAVE
TRACK 01 AUDIO
TITLE “The Contract / The Crypts Of Hades”
PERFORMER “Running Wild”
INDEX 01 00:00:00
TRACK 02 AUDIO
TITLE “Masquerade”
PERFORMER “Running Wild”
INDEX 01 02:16:10
TRACK 03 AUDIO
TITLE “Demonized”
PERFORMER “Running Wild”
INDEX 01 06:29:54
TRACK 04 AUDIO
TITLE “Black Soul”
PERFORMER “Running Wild”
INDEX 01 11:11:34
TRACK 05 AUDIO
TITLE “Lions Of The Sea”
PERFORMER “Running Wild”
INDEX 01 16:28:73
TRACK 06 AUDIO
TITLE “Rebel At Heart”
PERFORMER “Running Wild”
INDEX 01 22:21:35
TRACK 07 AUDIO
TITLE “Wheel Of Doom”
PERFORMER “Running Wild”
INDEX 01 28:15:22
TRACK 08 AUDIO
TITLE “Metalhead”
PERFORMER “Running Wild”
INDEX 01 32:20:07
TRACK 09 AUDIO
TITLE “Soleil Royal”
PERFORMER “Running Wild”
INDEX 01 37:16:40
TRACK 10 AUDIO
TITLE “Men In Black”
PERFORMER “Running Wild”
INDEX 01 42:01:54
TRACK 11 AUDIO
TITLE “Underworld”
PERFORMER “Running Wild”
INDEX 01 46:48:55
TRACK 12 AUDIO
TITLE “Iron Heads [Bonus]”
PERFORMER “Running Wild”
INDEX 00 53:03:60
INDEX 01 53:04:60
TRACK 13 AUDIO
TITLE “Bones To Ashes [Bonus]”
PERFORMER “Running Wild”
INDEX 01 56:49:27


Leave a Reply

Your email address will not be published. Required fields are marked *

Enter the text from the image below
 

This site uses Akismet to reduce spam. Learn how your comment data is processed.