Running Wild – Masquerade (Remastered Japanese Edition)




Artist: Running Wild
Year: 1995
Genre: Metal
Notes: Discogs
Add. Notes: Remastered Japanese Edition
Cover incl.: Yes
Encoder: FLAC
Bitrate: ~1100 kBit/s (44.1 kHz/16 Bit/s)
Log & Cue incl.: Yes
Size: 579 MB
Password: “slam” (without ” “)


All Downloads/Hosters are compatible

Download 1
KatFile.com
Rapidgator.net
Turbobit.net
FileFactory.com
Download 2
KatFile.com
Rapidgator.net
Turbobit.net
FileFactory.com

Tracklist:

1 - The Contract / The Crypts Of 
Hades - 2:20
2 - Masquerade - 4:20
3 - Demonized - 4:41
4 - Black Soul - 5:18
5 - Lions Of The Sea - 5:49
6 - Rebel At Heart - 5:45
7 - Wheel Of Doom - 4:03
8 - MetalHead - 4:57
9 - Soleil Royal - 4:45
10 - Men In Black - 4:36
11 - Underworld - 6:15

EAC-Log, CUE-Sheed & NFO:

Click to open spoiler
Exact Audio Copy V1.0 beta 3 from 29. August 2011

EAC extraction logfile from 1. March 2012, 18:06

Running Wild / Masquerade [Japan, Victor, VICP-5635, 1995]

Used drive : HL-DT-STDVDRAM GSA-T50F Adapter: 0 ID: 2

Read mode : Secure
Utilize accurate stream : Yes
Defeat audio cache : Yes
Make use of C2 pointers : No

Read offset correction : 667
Overread into Lead-In and Lead-Out : No
Fill up missing offset samples with silence : Yes
Delete leading and trailing silent blocks : No
Null samples used in CRC calculations : Yes
Used interface : Installed external ASPI interface

Used output format : Internal WAV Routines
Sample format : 44.100 Hz; 16 Bit; Stereo

TOC of the extracted CD

Track | Start | Length | Start sector | End sector
———————————————————
1 | 0:00.37 | 2:21.08 | 37 | 10619
2 | 2:21.45 | 4:20.32 | 10620 | 30151
3 | 6:42.02 | 4:40.53 | 30152 | 51204
4 | 11:22.55 | 5:18.02 | 51205 | 75056
5 | 16:40.57 | 5:49.18 | 75057 | 101249
6 | 22:30.00 | 5:45.30 | 101250 | 127154
7 | 28:15.30 | 4:02.55 | 127155 | 145359
8 | 32:18.10 | 4:57.07 | 145360 | 167641
9 | 37:15.17 | 4:44.58 | 167642 | 188999
10 | 42:00.00 | 4:36.10 | 189000 | 209709
11 | 46:36.10 | 6:15.50 | 209710 | 237884

Range status and errors

Selected range

Filename D:\Rip by Ballcrusher\Running Wild – Masquerade [Japan, Victor, VICP-5635, 1995].wav

Peak level 100.0 %
Extraction speed 4.1 X
Range quality 100.0 %
Test CRC 5E8D8806
Copy CRC 5E8D8806
Copy OK

No errors occurred

AccurateRip summary

Track 1 not present in database
Track 2 not present in database
Track 3 not present in database
Track 4 not present in database
Track 5 not present in database
Track 6 not present in database
Track 7 not present in database
Track 8 not present in database
Track 9 not present in database
Track 10 not present in database
Track 11 not present in database

None of the tracks are present in the AccurateRip database

End of status report

==== Log checksum 8772DD2B46F0C2270E6F01BBCBB0D6BD4F6C5AA541FD76CE847BB2D53EF31BDF ====

REM DATE 1995
REM DISCID 8A0C630B
REM COMMENT “ExactAudioCopy v1.0b3”
PERFORMER “Running Wild”
TITLE “Masquerade [Japan, Victor, VICP-5635, 1995]”
FILE “Running Wild – Masquerade [Japan, Victor, VICP-5635, 1995].flac” WAVE
TRACK 01 AUDIO
TITLE “The Contract / The Crypts Of Hades”
PERFORMER “Running Wild”
INDEX 00 00:00:00
INDEX 01 00:00:37
TRACK 02 AUDIO
TITLE “Masquerade”
PERFORMER “Running Wild”
INDEX 01 02:21:45
TRACK 03 AUDIO
TITLE “Demonized”
PERFORMER “Running Wild”
INDEX 00 06:41:63
INDEX 01 06:42:02
TRACK 04 AUDIO
TITLE “Black Soul”
PERFORMER “Running Wild”
INDEX 00 11:22:43
INDEX 01 11:22:55
TRACK 05 AUDIO
TITLE “Lions Of The Sea”
PERFORMER “Running Wild”
INDEX 00 16:40:41
INDEX 01 16:40:57
TRACK 06 AUDIO
TITLE “Rebel At Heart”
PERFORMER “Running Wild”
INDEX 01 22:30:00
TRACK 07 AUDIO
TITLE “Wheel Of Doom”
PERFORMER “Running Wild”
INDEX 01 28:15:30
TRACK 08 AUDIO
TITLE “Metalhead”
PERFORMER “Running Wild”
INDEX 00 32:18:08
INDEX 01 32:18:10
TRACK 09 AUDIO
TITLE “Soleil Royal”
PERFORMER “Running Wild”
INDEX 00 37:14:33
INDEX 01 37:15:17
TRACK 10 AUDIO
TITLE “Men In Black”
PERFORMER “Running Wild”
INDEX 00 41:59:41
INDEX 01 42:00:00
TRACK 11 AUDIO
TITLE “Underworld”
PERFORMER “Running Wild”
INDEX 01 46:36:10


Leave a Reply

Your email address will not be published. Required fields are marked *

Enter the text from the image below
 

This site uses Akismet to reduce spam. Learn how your comment data is processed.