Running Wild – Live




Artist: Running Wild
Year: 2002
Genre: Metal
Notes: Discogs
Add. Notes:
Cover incl.: Yes
Encoder: FLAC
Bitrate: ~1100 kBit/s (44.1 kHz/16 Bit/s)
Log & Cue incl.: Yes
Size: 776 MB
Password: “slam” (without ” “)


All Downloads/Hosters are compatible

Download 1
KatFile.com
Rapidgator.net
Turbobit.net
FileFactory.com
Download 2
KatFile.com
Rapidgator.net
Turbobit.net
FileFactory.com

Tracklist:

1-1 - March Of The Final Battle - 2:16
1-2 - Welcome To Hell - 4:38
1-3 - Bad To The Bone - 5:33
1-4 - Lead Or Gold - 6:04
1-5 - Riding The Storm - 5:15
1-6 - When Time Runs Out - 6:07
1-7 - The Brotherhood - 7:21
1-8 - Soulless - 5:43
1-9 - Blazon Stone - 5:21

2-1 - Crossfire - 4:58
2-2 - Metalmachine Solo - 3:02
2-3 - Kiss Of Death - 4:14
2-4 - Uaschitschun - 5:32
2-5 - Unation - 6:20
2-6 - Victory - 6:25
2-7 - Prisoners Of Our Time - 5:10
2-8 - Purgatory - 6:23
2-9 - Soulstrippers - 5:19
2-10 - Under Jolly Roger - 4:41

EAC-Log, CUE-Sheed & NFO:

Click to open spoiler
Exact Audio Copy V0.99 prebeta 4 from 23. January 2008

EAC extraction logfile from 29. September 2009, 21:33

Running Wild / Live 2002 – CD 1

Used drive : ATAPI DVD A DH20A4P Adapter: 3 ID: 0

Read mode : Secure
Utilize accurate stream : Yes
Defeat audio cache : Yes
Make use of C2 pointers : No

Read offset correction : 6
Overread into Lead-In and Lead-Out : No
Fill up missing offset samples with silence : Yes
Delete leading and trailing silent blocks : No
Null samples used in CRC calculations : Yes
Used interface : Installed external ASPI interface

Used output format : Monkey’s Audio Lossless Encoder
Selected bitrate : High Lossless Compression
Quality : High
Add ID3 tag : Yes
Command line compressor : C:\Program Files\Monkey’s Audio\MAC.exe

TOC of the extracted CD

Track | Start | Length | Start sector | End sector
———————————————————
1 | 0:00.00 | 2:16.39 | 0 | 10238
2 | 2:16.39 | 4:38.32 | 10239 | 31120
3 | 6:54.71 | 5:33.19 | 31121 | 56114
4 | 12:28.15 | 6:04.49 | 56115 | 83463
5 | 18:32.64 | 5:15.09 | 83464 | 107097
6 | 23:47.73 | 6:07.48 | 107098 | 134670
7 | 29:55.46 | 7:21.50 | 134671 | 167795
8 | 37:17.21 | 5:43.46 | 167796 | 193566
9 | 43:00.67 | 5:21.00 | 193567 | 217641
10 | 50:53.67 | 23:04.08 | 229042 | 332849

Range status and errors

Selected range

Filename D:\Download\Running Wild – Live 2002 – CD 1.wav

Peak level 100.0 %
Range quality 99.9 %
Copy CRC 437721ED
Copy OK

No errors occurred

AccurateRip summary

Track 1 cannot be verified as accurate (confidence 2) [E61C1AB6], AccurateRip returned [16C77FEE]
Track 2 cannot be verified as accurate (confidence 2) [C785E4D0], AccurateRip returned [E0B3BED4]
Track 3 cannot be verified as accurate (confidence 2) [EA185E33], AccurateRip returned [70FB4926]
Track 4 cannot be verified as accurate (confidence 2) [F9DE0DAD], AccurateRip returned [E42DB85E]
Track 5 not present in database
Track 6 cannot be verified as accurate (confidence 2) [DD384B77], AccurateRip returned [3B0256C6]
Track 7 cannot be verified as accurate (confidence 2) [0B0D665C], AccurateRip returned [66AF8030]
Track 8 not present in database
Track 9 not present in database

6 track(s) could not be verified as accurate
3 track(s) not present in the AccurateRip database

No tracks could be verified as accurate
You may have a different pressing from the one(s) in the database

End of status report

Exact Audio Copy V0.99 prebeta 4 from 23. January 2008

EAC extraction logfile from 29. September 2009, 22:03

Running Wild / Live 2002 – Disc 2

Used drive : ATAPI DVD A DH20A4P Adapter: 3 ID: 0

Read mode : Secure
Utilize accurate stream : Yes
Defeat audio cache : Yes
Make use of C2 pointers : No

Read offset correction : 6
Overread into Lead-In and Lead-Out : No
Fill up missing offset samples with silence : Yes
Delete leading and trailing silent blocks : No
Null samples used in CRC calculations : Yes
Used interface : Installed external ASPI interface

Used output format : Monkey’s Audio Lossless Encoder
Selected bitrate : High Lossless Compression
Quality : High
Add ID3 tag : Yes
Command line compressor : C:\Program Files\Monkey’s Audio\MAC.exe

TOC of the extracted CD

Track | Start | Length | Start sector | End sector
———————————————————
1 | 0:00.00 | 4:58.00 | 0 | 22349
2 | 4:58.00 | 3:02.70 | 22350 | 36069
3 | 8:00.70 | 4:15.10 | 36070 | 55204
4 | 12:16.05 | 5:32.57 | 55205 | 80161
5 | 17:48.62 | 6:20.38 | 80162 | 108699
6 | 24:09.25 | 6:25.50 | 108700 | 137624
7 | 30:35.00 | 5:10.35 | 137625 | 160909
8 | 35:45.35 | 6:23.10 | 160910 | 189644
9 | 42:08.45 | 5:19.57 | 189645 | 213626
10 | 47:28.27 | 4:41.16 | 213627 | 234717
11 | 54:41.43 | 19:16.32 | 246118 | 332849

Range status and errors

Selected range

Filename D:\Download\Running Wild – Live 2002 – Disc 2.wav

Peak level 100.0 %
Range quality 99.9 %
Copy CRC B003BEEB
Copy OK

No errors occurred

AccurateRip summary

Track 1 cannot be verified as accurate (confidence 2) [9E5ABB94], AccurateRip returned [DA59860C]
Track 2 cannot be verified as accurate (confidence 2) [144CE7BE], AccurateRip returned [A47CE247]
Track 3 cannot be verified as accurate (confidence 2) [53D1D3CE], AccurateRip returned [A2034A70]
Track 4 cannot be verified as accurate (confidence 2) [E780C590], AccurateRip returned [31C91F7A]
Track 5 cannot be verified as accurate (confidence 2) [6A80AF0F], AccurateRip returned [1C379760]
Track 6 cannot be verified as accurate (confidence 2) [E0B31650], AccurateRip returned [CD9CEA69]
Track 7 cannot be verified as accurate (confidence 2) [61512535], AccurateRip returned [EB46E2B7]
Track 8 cannot be verified as accurate (confidence 2) [B7F02ED6], AccurateRip returned [066FBE83]
Track 9 cannot be verified as accurate (confidence 2) [91708597], AccurateRip returned [79ADB9B4]
Track 10 cannot be verified as accurate (confidence 2) [BBF13CC5], AccurateRip returned [57442DEE]

No tracks could be verified as accurate
You may have a different pressing from the one(s) in the database

End of status report

REM GENRE “Heavy Metal”
REM DATE 2002
REM DISCID 8211560A
REM COMMENT “ExactAudioCopy v0.99pb4”
PERFORMER “Running Wild”
TITLE “Live 2002 – CD 1”
FILE “Running Wild – Live 2002 – CD 1.flac” WAVE
TRACK 01 AUDIO
TITLE “March Of The Final Battle”
PERFORMER “Running Wild”
INDEX 01 00:00:00
TRACK 02 AUDIO
TITLE “Welcome To Hell”
PERFORMER “Running Wild”
INDEX 01 02:16:39
TRACK 03 AUDIO
TITLE “Bad To The Bone”
PERFORMER “Running Wild”
INDEX 01 06:54:71
TRACK 04 AUDIO
TITLE “Lead Or Gold”
PERFORMER “Running Wild”
INDEX 01 12:28:15
TRACK 05 AUDIO
TITLE “Riding The Storm”
PERFORMER “Running Wild”
INDEX 01 18:32:64
TRACK 06 AUDIO
TITLE “When Time Runs Out”
PERFORMER “Running Wild”
INDEX 01 23:47:73
TRACK 07 AUDIO
TITLE “The Brotherhood”
PERFORMER “Running Wild”
INDEX 01 29:55:46
TRACK 08 AUDIO
TITLE “Soulless”
PERFORMER “Running Wild”
INDEX 01 37:17:21
TRACK 09 AUDIO
TITLE “Blazon Stone”
PERFORMER “Running Wild”
INDEX 01 43:00:67

REM GENRE “Heavy Metal”
REM DATE 2002
REM DISCID 8211560B
REM COMMENT ExactAudioCopy v0.99pb4
PERFORMER “Running Wild”
TITLE “Live 2002 – CD 2”
FILE “Running Wild – Live 2002 – CD 2.flac” WAVE
TRACK 01 AUDIO
TITLE “Crossfire”
INDEX 01 00:00:00
TRACK 02 AUDIO
TITLE “Metalmachine Solo”
INDEX 01 04:58:00
TRACK 03 AUDIO
TITLE “Kiss Of Death”
INDEX 01 08:00:70
TRACK 04 AUDIO
TITLE “Uaschitschun”
INDEX 01 12:16:05
TRACK 05 AUDIO
TITLE “Unation”
INDEX 01 17:48:62
TRACK 06 AUDIO
TITLE “Victory”
INDEX 01 24:09:25
TRACK 07 AUDIO
TITLE “Prisoners Of Our Time”
INDEX 01 30:35:00
TRACK 08 AUDIO
TITLE “Purgatory”
INDEX 01 35:45:35
TRACK 09 AUDIO
TITLE “Soulstrippers”
INDEX 01 42:08:45
TRACK 10 AUDIO
TITLE “Under Jolly Roger”
INDEX 01 47:28:27


Leave a Reply

Your email address will not be published. Required fields are marked *

Enter the text from the image below
 

This site uses Akismet to reduce spam. Learn how your comment data is processed.