Running Wild – Gates To Purgatory




Artist: Running Wild
Year: 1984/1988
Genre: Metal
Notes: Discogs
Add. Notes:
Cover incl.: Yes
Encoder: FLAC
Bitrate: ~1000 kBit/s (44.1 kHz/16 Bit/s)
Log & Cue incl.: Yes
Size: 363,74 MB
Password: “slam” (without ” “)


All Downloads/Hosters are compatible

Download 1
Turbobit.net
Rapidgator.net
KatFile.com
UploadRar.com
Download 2
Turbobit.net
Rapidgator.net
KatFile.com
UploadRar.com

Tracklist:

1 - Victim Of States Power - 3:39
2 - Black Demon - 4:30
3 - Preacher - 4:26
4 - Soldiers Of Hell - 3:30
5 - Diabolic Force - 5:05
6 - Adrian S.O.S. - 2:55
7 - Genghis Khan - 4:13
8 - Prisoner Of Our Time - 5:27
Extra Tracks
9 - Walpurgis Night - 4:41
10 - Satan - 4:09

EAC-Log, CUE-Sheed & NFO:

Click to open spoiler
Exact Audio Copy V1.0 beta 1 from 15. November 2010

EAC extraction logfile from 4. February 2011, 14:45

Running Wild / Gates To Purgatory

Used drive : TOSHIBA ODD-DVD SD-R5272 Adapter: 0 ID: 1

Read mode : Secure
Utilize accurate stream : Yes
Defeat audio cache : Yes
Make use of C2 pointers : No

Read offset correction : 116
Overread into Lead-In and Lead-Out : No
Fill up missing offset samples with silence : Yes
Delete leading and trailing silent blocks : No
Null samples used in CRC calculations : Yes
Used interface : Installed external ASPI interface

Used output format : Internal WAV Routines
Sample format : 44.100 Hz; 16 Bit; Stereo

TOC of the extracted CD

Track | Start | Length | Start sector | End sector
———————————————————
1 | 0:00.00 | 3:39.67 | 0 | 16491
2 | 3:39.67 | 4:29.13 | 16492 | 36679
3 | 8:09.05 | 4:26.15 | 36680 | 56644
4 | 12:35.20 | 3:30.32 | 56645 | 72426
5 | 16:05.52 | 5:04.55 | 72427 | 95281
6 | 21:10.32 | 2:54.48 | 95282 | 108379
7 | 24:05.05 | 4:13.42 | 108380 | 127396
8 | 28:18.47 | 5:26.63 | 127397 | 151909
9 | 33:45.35 | 4:41.05 | 151910 | 172989
10 | 38:26.40 | 4:08.57 | 172990 | 191646

Range status and errors

Selected range

Filename D:\Running Wild – 1984 – Gates To Purgatory\Running Wild – Gates To Purgatory.wav

Peak level 87.2 %
Extraction speed 0.5 X
Range quality 100.0 %
Test CRC 1C89600B
Copy CRC 1C89600B
Copy OK

No errors occurred

AccurateRip summary

Track 1 accurately ripped (confidence 2) [B138C895]
Track 2 accurately ripped (confidence 2) [0CB699F2]
Track 3 accurately ripped (confidence 2) [0D932420]
Track 4 accurately ripped (confidence 2) [7E81CC28]
Track 5 accurately ripped (confidence 2) [E8410799]
Track 6 accurately ripped (confidence 2) [B93C4743]
Track 7 accurately ripped (confidence 2) [1AB09E26]
Track 8 accurately ripped (confidence 2) [20E89E75]
Track 9 accurately ripped (confidence 2) [8D19588A]
Track 10 accurately ripped (confidence 2) [E2EDBCAA]

All tracks accurately ripped

End of status report

==== Log checksum 0880933CFC3B52352C473587DB07186894B811597AFB39ACDC1C658C2CE19C7F ====

REM GENRE “Heavy Metal”
REM DATE 1984
REM DISCID 7A09FB0A
REM COMMENT “ExactAudioCopy v1.0b1”
CATALOG “NCD 001”
PERFORMER “Running Wild”
TITLE “Gates To Purgatory”
FILE “Running Wild – Gates To Purgatory.flac” WAVE
TRACK 01 AUDIO
TITLE “Victim Of States Power”
PERFORMER “Running Wild”
INDEX 01 00:00:00
TRACK 02 AUDIO
TITLE “Black Demon”
PERFORMER “Running Wild”
INDEX 00 03:35:49
INDEX 01 03:39:67
TRACK 03 AUDIO
TITLE “Preacher”
PERFORMER “Running Wild”
INDEX 00 08:04:18
INDEX 01 08:09:05
TRACK 04 AUDIO
TITLE “Soldiers Of Hell”
PERFORMER “Running Wild”
INDEX 00 12:30:48
INDEX 01 12:35:20
TRACK 05 AUDIO
TITLE “Diabolic Force”
PERFORMER “Running Wild”
INDEX 00 15:59:40
INDEX 01 16:05:52
TRACK 06 AUDIO
TITLE “Adrian Sos”
PERFORMER “Running Wild”
INDEX 00 21:05:36
INDEX 01 21:10:32
TRACK 07 AUDIO
TITLE “Genghis Khan”
PERFORMER “Running Wild”
INDEX 00 23:59:36
INDEX 01 24:05:05
TRACK 08 AUDIO
TITLE “Prisoner Of Our Time”
PERFORMER “Running Wild”
INDEX 00 28:13:10
INDEX 01 28:18:47
TRACK 09 AUDIO
TITLE “Walpurgis Night”
PERFORMER “Running Wild”
INDEX 00 33:41:23
INDEX 01 33:45:35
TRACK 10 AUDIO
TITLE “Satan”
PERFORMER “Running Wild”
INDEX 00 38:23:43
INDEX 01 38:26:40


Leave a Reply

Your email address will not be published. Required fields are marked *

This site uses Akismet to reduce spam. Learn how your comment data is processed.