Running Wild – Gates To Purgatory (Remastered)




[Total: 0    Average: 0/5]

Artist: Running Wild
Year: 1984/2012
Genre: Metal
Notes: Discogs
Add. Notes: Remastered
Cover incl.: Yes
Encoder: FLAC
Bitrate: ~1100 kBit/s (44.1 kHz/16 Bit/s)
Log & Cue incl.: Yes
Size: 380,49 MB
Password: “slam” (without ” “)


All Downloads/Hosters are compatible

Download 1
Share-online.biz
KatFile.com
Rapidgator.net
Download 2
Share-online.biz
KatFile.com
Rapidgator.net

Tracklist:

1 - Victim Of States Power - 3:37
2 - Black Demon - 4:26
3 - Preacher - 4:23
4 - Soldiers Of Hell - 3:26
5 - Diabolic Force - 5:02
6 - Adrian S.O.S. - 2:50
7 - Genghis Khan - 4:09
8 - Prisoner Of Our Time - 5:25
Bonus Tracks
9 - Walpurgis Night - 4:38
10 - Satan - 4:10

EAC-Log, CUE-Sheed & NFO:

Click to open spoiler
Exact Audio Copy V1.0 beta 3 from 29. August 2011

EAC extraction logfile from 3. August 2012, 15:40

Running Wild / Gates To Purgatory

Used drive : ATAPI DVD A DH16ABSH Adapter: 0 ID: 1

Read mode : Secure
Utilize accurate stream : Yes
Defeat audio cache : Yes
Make use of C2 pointers : No

Read offset correction : 6
Overread into Lead-In and Lead-Out : No
Fill up missing offset samples with silence : Yes
Delete leading and trailing silent blocks : No
Null samples used in CRC calculations : Yes
Used interface : Installed external ASPI interface

Used output format : Internal WAV Routines
Sample format : 44.100 Hz; 16 Bit; Stereo

TOC of the extracted CD

Track | Start | Length | Start sector | End sector
———————————————————
1 | 0:00.00 | 3:40.55 | 0 | 16554
2 | 3:40.55 | 4:29.13 | 16555 | 36742
3 | 8:09.68 | 4:26.13 | 36743 | 56705
4 | 12:36.06 | 3:27.56 | 56706 | 72286
5 | 16:03.62 | 5:04.54 | 72287 | 95140
6 | 21:08.41 | 2:54.48 | 95141 | 108238
7 | 24:03.14 | 4:13.41 | 108239 | 127254
8 | 28:16.55 | 5:30.68 | 127255 | 152072
9 | 33:47.48 | 4:40.03 | 152073 | 173075
10 | 38:27.51 | 4:10.34 | 173076 | 191859

Range status and errors

Selected range

Filename D:\privateer1664\Running Wild – Gates To Purgatory.wav

Peak level 99.8 %
Extraction speed 2.9 X
Range quality 100.0 %
Test CRC 28878FE0
Copy CRC 28878FE0
Copy OK

No errors occurred

AccurateRip summary

Track 1 not present in database
Track 2 not present in database
Track 3 not present in database
Track 4 not present in database
Track 5 not present in database
Track 6 not present in database
Track 7 not present in database
Track 8 not present in database
Track 9 not present in database
Track 10 not present in database

None of the tracks are present in the AccurateRip database

End of status report

—- CUETools DB Plugin V2.1.4

[CTDB TOCID: fnb1OnqSa.oU56zPz5.mwmH6AP0-] disk not present in database
Submit result: Запрос был прерван: Запрос отменен.

==== Log checksum A2DA24BB8515628AE1769ED73C43A9295DD8E6FC22CE898B479B6E17B950518A ====

REM GENRE “Heavy Metal”
REM DATE 2012
REM DISCID 8909FE0A
REM COMMENT “ExactAudioCopy v1.0b3”
PERFORMER “Running Wild”
TITLE “Gates To Purgatory”
FILE “Running Wild – Gates To Purgatory.flac” WAVE
TRACK 01 AUDIO
TITLE “Victim Of State Power”
PERFORMER “Running Wild”
INDEX 01 00:00:00
TRACK 02 AUDIO
TITLE “Black Demon”
PERFORMER “Running Wild”
INDEX 00 03:36:57
INDEX 01 03:40:55
TRACK 03 AUDIO
TITLE “Preacher”
PERFORMER “Running Wild”
INDEX 00 08:05:07
INDEX 01 08:09:68
TRACK 04 AUDIO
TITLE “Soldiers Of Hell”
PERFORMER “Running Wild”
INDEX 00 12:31:28
INDEX 01 12:36:06
TRACK 05 AUDIO
TITLE “Diabolic Force”
PERFORMER “Running Wild”
INDEX 00 16:00:26
INDEX 01 16:03:62
TRACK 06 AUDIO
TITLE “Adrian S.O.S.”
PERFORMER “Running Wild”
INDEX 00 21:04:49
INDEX 01 21:08:41
TRACK 07 AUDIO
TITLE “Genghis Khan”
PERFORMER “Running Wild”
INDEX 00 23:57:48
INDEX 01 24:03:14
TRACK 08 AUDIO
TITLE “Prisoner Of Our Time”
PERFORMER “Running Wild”
INDEX 00 28:11:32
INDEX 01 28:16:55
TRACK 09 AUDIO
TITLE “Walpurgis Night (Bonus Track)”
PERFORMER “Running Wild”
INDEX 00 33:40:16
INDEX 01 33:47:48
TRACK 10 AUDIO
TITLE “Satan (Bonus Track)”
PERFORMER “Running Wild”
INDEX 00 38:24:28
INDEX 01 38:27:51


Spread the Download

Leave a Reply

Your email address will not be published. Required fields are marked *

Enter the text from the image below
 

This site uses Akismet to reduce spam. Learn how your comment data is processed.