Running Wild – Gates To Purgatory / Branded And Exiled (Remastered Japanese Edition)




Artist: Running Wild
Year: 1991
Genre: Metal
Notes: Discogs
Add. Notes: Remastered Japanese Edition
Cover incl.: Yes
Encoder: FLAC
Bitrate: ~1000 kBit/s (44.1 kHz/16 Bit/s)
Log & Cue incl.: Yes
Size: 621 MB
Password: “slam” (without ” “)


All Downloads/Hosters are compatible

Download 1
KatFile.com
Turbobit.net
Rapidgator.net
Download 2
KatFile.com
Turbobit.net
Rapidgator.net

Tracklist:

Gates To Purgatory
1 - Victim Of States Power - 3:36
2 - Black Demon - 4:24
3 - Preacher - 4:21
4 - Soldiers Of Hell - 3:24
5 - Diabolic Force - 5:01
6 - Adrian (S.O.S.) - 2:48
7 - Genghis Khan - 4:08
8 - Prisoner Of Our Time - 5:23
9 - Walpurgis Night - 4:59
10 - Satan - 4:08

Branded And Exiled
11 - Branded And Exiled - 3:53
12 - Gods Of The Iron - 4:01
13 - Realm Of Shades - 4:28
14 - Mordor - 4:49
15 - Fight The Oppression - 4:55
16 - Evil Spirit - 3:20
17 - Marching To Die - 4:35
18 - Chains And Leather - 5:44

EAC-Log, CUE-Sheed & NFO:

Click to open spoiler
Exact Audio Copy V1.0 beta 3 from 29. August 2011

Отчёт EAC об извлечении, выполненном 3. февраля 2014, 16:23

Running Wild / Gates To Purgatory/Branded And Exiled

Дисковод: ASUS DRW-24B3ST Adapter: 1 ID: 1

Режим чтения : Достоверность
Использование точного потока : Да
Отключение кэша аудио : Да
Использование указателей C2 : Нет

Коррекция смещения при чтении : 6
Способность читать области Lead-in и Lead-out : Нет
Заполнение пропущенных сэмплов тишиной : Да
Удаление блоков с тишиной в начале и конце : Нет
При вычислениях CRC использовались нулевые сэмплы : Да
Интерфейс : Встроенный Win32-интерфейс для Win NT/2000

Выходной формат : Внутренние WAV-операции
Формат сэмплов : 44.100 Гц; 16 бит; стерео

TOC извлечённого CD

Трек | Старт | Длительность | Начальный сектор | Конечный сектор
———————————————————————
1 | 0:00.37 | 3:37.63 | 37 | 16374
2 | 3:38.25 | 4:26.00 | 16375 | 36324
3 | 8:04.25 | 4:22.30 | 36325 | 56004
4 | 12:26.55 | 3:25.07 | 56005 | 71386
5 | 15:51.62 | 5:01.00 | 71387 | 93961
6 | 20:52.62 | 2:49.33 | 93962 | 106669
7 | 23:42.20 | 4:09.10 | 106670 | 125354
8 | 27:51.30 | 5:24.30 | 125355 | 149684
9 | 33:15.60 | 5:00.27 | 149685 | 172211
10 | 38:16.12 | 4:11.33 | 172212 | 191069
11 | 42:27.45 | 3:53.65 | 191070 | 208609
12 | 46:21.35 | 4:01.35 | 208610 | 226719
13 | 50:22.70 | 4:29.07 | 226720 | 246901
14 | 54:52.02 | 4:50.43 | 246902 | 268694
15 | 59:42.45 | 4:56.02 | 268695 | 290896
16 | 64:38.47 | 3:20.48 | 290897 | 305944
17 | 67:59.20 | 4:36.02 | 305945 | 326646
18 | 72:35.22 | 5:44.23 | 326647 | 352469

Характеристики диапазона извлечения и сообщения об ошибках

Выбранный диапазон

Имя файла D:\EAC CDRips\Running Wild – Gates To Purgatory,Branded And Exiled.wav

Пиковый уровень 100.0 %
Скорость извлечения 9.9 X
Качество диапазона 100.0 %
CRC теста FF5855CE
CRC копии FF5855CE
Копирование… OK

Ошибок не произошло

AccurateRip: сводка

Трек 1 : извлечено точно (доверие 3) [50E5937D] (AR v1)
Трек 2 : извлечено точно (доверие 3) [94538E33] (AR v1)
Трек 3 : извлечено точно (доверие 3) [1FE438E0] (AR v1)
Трек 4 : извлечено точно (доверие 3) [8B967FB3] (AR v1)
Трек 5 : извлечено точно (доверие 3) [F9587042] (AR v1)
Трек 6 : извлечено точно (доверие 3) [29144316] (AR v1)
Трек 7 : извлечено точно (доверие 3) [7947982C] (AR v1)
Трек 8 : извлечено точно (доверие 3) [81C55ADB] (AR v1)
Трек 9 : извлечено точно (доверие 3) [A4729C06] (AR v1)
Трек 10 : извлечено точно (доверие 3) [BCB996A3] (AR v1)
Трек 11 : извлечено точно (доверие 3) [D682BAA5] (AR v1)
Трек 12 : извлечено точно (доверие 3) [F156D0F6] (AR v1)
Трек 13 : извлечено точно (доверие 3) [195215FA] (AR v1)
Трек 14 : извлечено точно (доверие 3) [51AF0A44] (AR v1)
Трек 15 : извлечено точно (доверие 3) [DE91BE9F] (AR v1)
Трек 16 : извлечено точно (доверие 3) [58A55CDF] (AR v1)
Трек 17 : извлечено точно (доверие 3) [A53F7318] (AR v1)
Трек 18 : извлечено точно (доверие 3) [E02FFCD6] (AR v1)

Все треки извлечены точно

Конец отчёта

—- CUETools DB Plugin V2.1.4

[CTDB TOCID: UT8XHjSYu1tL5jRiA3tdvuwOaQE-] found
Submit result: UT8XHjSYu1tL5jRiA3tdvuwOaQE- has been confirmed
Track | CTDB Status
1 | (2/2) Accurately ripped
2 | (2/2) Accurately ripped
3 | (2/2) Accurately ripped
4 | (2/2) Accurately ripped
5 | (2/2) Accurately ripped
6 | (2/2) Accurately ripped
7 | (2/2) Accurately ripped
8 | (2/2) Accurately ripped
9 | (2/2) Accurately ripped
10 | (2/2) Accurately ripped
11 | (2/2) Accurately ripped
12 | (2/2) Accurately ripped
13 | (2/2) Accurately ripped
14 | (2/2) Accurately ripped
15 | (2/2) Accurately ripped
16 | (2/2) Accurately ripped
17 | (2/2) Accurately ripped
18 | (2/2) Accurately ripped

==== Контрольная сумма отчёта AE04ABAEF2F3C39A1FB7939B6B1D6C12C258FD484EA44C1B35DE5268B005914E ====

REM GENRE “Heavy Metal”
REM DATE 1991
REM DISCID 1E125B12
REM COMMENT “ExactAudioCopy v1.0b3”
PERFORMER “Running Wild”
TITLE “Gates To Purgatory/Branded And Exiled”
FILE “Running Wild – Gates To Purgatory,Branded And Exiled.flac” WAVE
TRACK 01 AUDIO
TITLE “Victim Of States Power”
PERFORMER “Running Wild”
INDEX 00 00:00:00
INDEX 01 00:00:37
TRACK 02 AUDIO
TITLE “Black Demon”
PERFORMER “Running Wild”
INDEX 00 03:37:23
INDEX 01 03:38:25
TRACK 03 AUDIO
TITLE “Preacher”
PERFORMER “Running Wild”
INDEX 00 08:03:06
INDEX 01 08:04:25
TRACK 04 AUDIO
TITLE “Soldiers Of Hell”
PERFORMER “Running Wild”
INDEX 00 12:26:16
INDEX 01 12:26:55
TRACK 05 AUDIO
TITLE “Diabolic Force”
PERFORMER “Running Wild”
INDEX 00 15:51:31
INDEX 01 15:51:62
TRACK 06 AUDIO
TITLE “Adrian (S.O.S.)”
PERFORMER “Running Wild”
INDEX 01 20:52:62
TRACK 07 AUDIO
TITLE “Genghis Khan”
PERFORMER “Running Wild”
INDEX 00 23:41:51
INDEX 01 23:42:20
TRACK 08 AUDIO
TITLE “Prisoner Of Our Time”
PERFORMER “Running Wild”
INDEX 00 27:50:59
INDEX 01 27:51:30
TRACK 09 AUDIO
TITLE “Walpurgis Night”
PERFORMER “Running Wild”
INDEX 00 33:14:61
INDEX 01 33:15:60
TRACK 10 AUDIO
TITLE “Satan”
PERFORMER “Running Wild”
INDEX 00 38:14:71
INDEX 01 38:16:12
TRACK 11 AUDIO
TITLE “Branded Or Exiled”
PERFORMER “Running Wild”
INDEX 00 42:25:08
INDEX 01 42:27:45
TRACK 12 AUDIO
TITLE “Gods Of The Iron”
PERFORMER “Running Wild”
INDEX 01 46:21:35
TRACK 13 AUDIO
TITLE “Realm Of Shades”
PERFORMER “Running Wild”
INDEX 00 50:22:46
INDEX 01 50:22:70
TRACK 14 AUDIO
TITLE “Mordor”
PERFORMER “Running Wild”
INDEX 00 54:51:41
INDEX 01 54:52:02
TRACK 15 AUDIO
TITLE “Fight The Opression”
PERFORMER “Running Wild”
INDEX 00 59:41:46
INDEX 01 59:42:45
TRACK 16 AUDIO
TITLE “Evil Spirit”
PERFORMER “Running Wild”
INDEX 00 64:37:61
INDEX 01 64:38:47
TRACK 17 AUDIO
TITLE “Marching To Die”
PERFORMER “Running Wild”
INDEX 01 67:59:20
TRACK 18 AUDIO
TITLE “Chains And Leather”
PERFORMER “Running Wild”
INDEX 00 72:34:36
INDEX 01 72:35:22


Leave a Reply

Your email address will not be published. Required fields are marked *

This site uses Akismet to reduce spam. Learn how your comment data is processed.