Running Wild – Death Or Glory




[Total: 0    Average: 0/5]

Artist: Running Wild
Year: 1989
Genre: Metal
Notes: Discogs
Add. Notes:
Cover incl.: Yes
Encoder: FLAC
Bitrate: ~900 kBit/s (44.1 kHz/16 Bit/s)
Log & Cue incl.: Yes
Size: 439,38 MB
Password: “slam” (without ” “)


All Downloads/Hosters are compatible

Download 1
Share-online.biz
KatFile.com
Rapidgator.net
Download 2
Share-online.biz
KatFile.com
Rapidgator.net

Tracklist:

1 - Riding The Storm - 6:28
2 - Renegade - 4:30
3 - Evilution - 4:43
4 - Running Blood - 4:30
5 - Highland Glory (The Eternal Fight) - 4:52
6 - Marooned - 5:13
7 - Bad To The Bone - 4:46
8 - Tortuga Bay - 3:17
9 - Death Or Glory - 3:57
10 - Battle Of Waterloo - 7:48
11 - March On - 4:12

EAC-Log, CUE-Sheed & NFO:

Click to open spoiler
Exact Audio Copy V1.0 beta 1 from 15. November 2010

EAC extraction logfile from 5. February 2011, 15:08

Running Wild / Death Or Glory

Used drive : TOSHIBA ODD-DVD SD-R5272 Adapter: 0 ID: 1

Read mode : Secure
Utilize accurate stream : Yes
Defeat audio cache : Yes
Make use of C2 pointers : No

Read offset correction : 116
Overread into Lead-In and Lead-Out : No
Fill up missing offset samples with silence : Yes
Delete leading and trailing silent blocks : No
Null samples used in CRC calculations : Yes
Used interface : Installed external ASPI interface

Used output format : Internal WAV Routines
Sample format : 44.100 Hz; 16 Bit; Stereo

TOC of the extracted CD

Track | Start | Length | Start sector | End sector
———————————————————
1 | 0:00.33 | 6:28.07 | 33 | 29139
2 | 6:28.40 | 4:29.48 | 29140 | 49362
3 | 10:58.13 | 4:43.35 | 49363 | 70622
4 | 15:41.48 | 4:29.40 | 70623 | 90837
5 | 20:11.13 | 4:52.07 | 90838 | 112744
6 | 25:03.20 | 5:12.70 | 112745 | 136214
7 | 30:16.15 | 4:46.23 | 136215 | 157687
8 | 35:02.38 | 3:16.70 | 157688 | 172457
9 | 38:19.33 | 3:57.05 | 172458 | 190237
10 | 42:16.38 | 7:48.22 | 190238 | 225359
11 | 50:04.60 | 4:12.00 | 225360 | 244259

Range status and errors

Selected range

Filename D:\Running Wild – 1989 – Death Or Glory\Running Wild – Death Or Glory.wav

Peak level 85.5 %
Extraction speed 0.4 X
Range quality 100.0 %
Test CRC FBBB6508
Copy CRC FBBB6508
Copy OK

No errors occurred

AccurateRip summary

Track 1 accurately ripped (confidence 7) [6B42628A]
Track 2 accurately ripped (confidence 7) [E35BB003]
Track 3 accurately ripped (confidence 7) [6E4165F8]
Track 4 accurately ripped (confidence 6) [CED6BDD0]
Track 5 accurately ripped (confidence 7) [3E517DFA]
Track 6 accurately ripped (confidence 6) [3C7EF007]
Track 7 accurately ripped (confidence 7) [D48F60F9]
Track 8 accurately ripped (confidence 7) [6C69E8AE]
Track 9 accurately ripped (confidence 7) [91EF41BF]
Track 10 accurately ripped (confidence 6) [175AC219]
Track 11 accurately ripped (confidence 7) [E064D466]

All tracks accurately ripped

End of status report

==== Log checksum 2382063CBC44C0AEA0D8B3134C5FC1AAA8B81D6342BD6F494230FFC1F3EA1B9D ====

REM GENRE “Heavy Metal”
REM DATE 1989
REM DISCID 760CB80B
REM COMMENT “ExactAudioCopy v1.0b1”
CATALOG “CDP 7933242”
PERFORMER “Running Wild”
TITLE “Death Or Glory”
FILE “Running Wild – Death Or Glory.flac” WAVE
TRACK 01 AUDIO
TITLE “Riding The Storm”
PERFORMER “Running Wild”
INDEX 00 00:00:00
INDEX 01 00:00:33
TRACK 02 AUDIO
TITLE “Renegade”
PERFORMER “Running Wild”
INDEX 00 06:28:38
INDEX 01 06:28:40
TRACK 03 AUDIO
TITLE “Evilution”
PERFORMER “Running Wild”
INDEX 00 10:58:10
INDEX 01 10:58:13
TRACK 04 AUDIO
TITLE “Running Blood”
PERFORMER “Running Wild”
INDEX 00 15:41:33
INDEX 01 15:41:48
TRACK 05 AUDIO
TITLE “Highland Glory (The Eternal Fight)”
PERFORMER “Running Wild”
INDEX 00 20:11:10
INDEX 01 20:11:13
TRACK 06 AUDIO
TITLE “Marooned”
PERFORMER “Running Wild”
INDEX 00 25:03:15
INDEX 01 25:03:20
TRACK 07 AUDIO
TITLE “Bad To The Bone”
PERFORMER “Running Wild”
INDEX 00 30:16:13
INDEX 01 30:16:15
TRACK 08 AUDIO
TITLE “Tortuga Bay”
PERFORMER “Running Wild”
INDEX 00 35:02:35
INDEX 01 35:02:38
TRACK 09 AUDIO
TITLE “Death Or Glory”
PERFORMER “Running Wild”
INDEX 00 38:19:30
INDEX 01 38:19:33
TRACK 10 AUDIO
TITLE “Battle Of Waterloo”
PERFORMER “Running Wild”
INDEX 00 42:16:35
INDEX 01 42:16:38
TRACK 11 AUDIO
TITLE “March On”
PERFORMER “Running Wild”
INDEX 00 50:04:58
INDEX 01 50:04:60


Spread the Download

Leave a Reply

Your email address will not be published. Required fields are marked *

Enter the text from the image below
 

This site uses Akismet to reduce spam. Learn how your comment data is processed.