Running Wild – Death Or Glory (Remastered)




No Cover available

Artist: Running Wild
Year: 2000
Genre: Metal
Notes: Discogs
Add. Notes: Remastered
Watch Songs on: YouTube
Cover incl.: Yes
Encoder: FLAC
Bitrate: ~1100 kBit/s (44.1 kHz/16 Bit/s)
Log & Cue incl.: Yes/Yes
Size: 613,3 MB
Password: “slam” (without ” “)


All Downloads/Hosters are compatible

Download 1
KatFile.com
Turbobit.net
FileFactory.com
Rapidgator.net
Download 2
KatFile.com
Turbobit.net
FileFactory.com
Rapidgator.net

Tracklist:

1 Riding The Storm 6:28
2 Renegade 4:30
3 Evilution 4:43
4 Running Blood 4:30
5 Highland Glory (The Eternal Fight) 4:52
6 Marooned 5:13
7 Bad To The Bone 4:46
8 Tortuga Bay 3:17
9 Death Or Glory 3:57
10 Battle Of Waterloo 7:48
11 March On 4:12

Bonus Tracks:
12 Wild Animal 4:11
13 Tear Down The Walls 4:15
14 Störtebeker 4:06
15 Chains & Leather 5:44

EAC-Log, CUE-Sheed & NFO:

Click to open spoiler
Exact Audio Copy V1.0 beta 3 from 29. August 2011

EAC extraction logfile from 1. March 2013, 12:03

Running Wild / Death Or Glory [Remaster] [Argentina, NEMS 185]

Used drive : HL-DT-STDVDRAM GSA-T50F Adapter: 0 ID: 2

Read mode : Secure
Utilize accurate stream : Yes
Defeat audio cache : Yes
Make use of C2 pointers : No

Read offset correction : 667
Overread into Lead-In and Lead-Out : No
Fill up missing offset samples with silence : Yes
Delete leading and trailing silent blocks : No
Null samples used in CRC calculations : Yes
Used interface : Installed external ASPI interface

Used output format : Internal WAV Routines
Sample format : 44.100 Hz; 16 Bit; Stereo

TOC of the extracted CD

Track | Start | Length | Start sector | End sector
———————————————————
1 | 0:00.00 | 6:27.55 | 0 | 29079
2 | 6:27.55 | 4:29.31 | 29080 | 49285
3 | 10:57.11 | 4:43.72 | 49286 | 70582
4 | 15:41.08 | 4:29.05 | 70583 | 90762
5 | 20:10.13 | 4:51.70 | 90763 | 112657
6 | 25:02.08 | 5:12.42 | 112658 | 136099
7 | 30:14.50 | 4:46.17 | 136100 | 157566
8 | 35:00.67 | 3:16.61 | 157567 | 172327
9 | 38:17.53 | 3:56.72 | 172328 | 190099
10 | 42:14.50 | 7:50.24 | 190100 | 225373
11 | 50:04.74 | 4:08.15 | 225374 | 243988
12 | 54:13.14 | 4:11.47 | 243989 | 262860
13 | 58:24.61 | 5:46.25 | 262861 | 288835
14 | 64:11.11 | 4:17.59 | 288836 | 308169
15 | 68:28.70 | 4:05.16 | 308170 | 326560

Range status and errors

Selected range

Filename D:\Rip by Ballcrusher\Running Wild – Death Or Glory [Remaster] [Argentina, NEMS 185].wav

Peak level 100.0 %
Extraction speed 4.3 X
Range quality 100.0 %
Test CRC 0506D783
Copy CRC 0506D783
Copy OK

No errors occurred

AccurateRip summary

Track 1 cannot be verified as accurate (confidence 10) [E3EA79E1], AccurateRip returned [33D2B646] (AR v2)
Track 2 cannot be verified as accurate (confidence 9) [08D072BC], AccurateRip returned [49985B3C] (AR v2)
Track 3 cannot be verified as accurate (confidence 9) [9043DF1F], AccurateRip returned [AC8B99D4] (AR v2)
Track 4 cannot be verified as accurate (confidence 9) [6575C7DA], AccurateRip returned [6A4FC884] (AR v2)
Track 5 cannot be verified as accurate (confidence 9) [7AAA4571], AccurateRip returned [0B7650B5] (AR v2)
Track 6 cannot be verified as accurate (confidence 9) [9832C5EA], AccurateRip returned [D64D0494] (AR v2)
Track 7 cannot be verified as accurate (confidence 9) [8F8EB187], AccurateRip returned [96EAC3CC] (AR v2)
Track 8 cannot be verified as accurate (confidence 9) [6849792F], AccurateRip returned [7C5F5EF2] (AR v2)
Track 9 cannot be verified as accurate (confidence 9) [EE0F88C6], AccurateRip returned [C985DC21] (AR v2)
Track 10 cannot be verified as accurate (confidence 9) [51EE76BB], AccurateRip returned [88EEB3CE] (AR v2)
Track 11 cannot be verified as accurate (confidence 8) [85C59B84], AccurateRip returned [6CCBC8C5] (AR v2)
Track 12 cannot be verified as accurate (confidence 8) [7ACE9AAE], AccurateRip returned [CAA15BF4] (AR v2)
Track 13 cannot be verified as accurate (confidence 8) [D8A61FF5], AccurateRip returned [5157DE04] (AR v2)
Track 14 cannot be verified as accurate (confidence 8) [40913C2C], AccurateRip returned [97A9B15F] (AR v2)
Track 15 cannot be verified as accurate (confidence 8) [83601C99], AccurateRip returned [B7967122] (AR v2)

No tracks could be verified as accurate
You may have a different pressing from the one(s) in the database

End of status report

==== Log checksum 95FB778272EE55FF758392908567CF6FF67739A1C1DC8736E1643ECD67093185 ====

REM DATE 1989
REM DISCID C411020F
REM COMMENT “ExactAudioCopy v1.0b3”
PERFORMER “Running Wild”
TITLE “Death Or Glory [Remaster] [Argentina, NEMS 185]”
FILE “Running Wild – Death Or Glory [Remaster] [Argentina, NEMS 185].flac” WAVE
TRACK 01 AUDIO
TITLE “Riding The Storm”
PERFORMER “Running Wild”
INDEX 01 00:00:00
TRACK 02 AUDIO
TITLE “Renegade”
PERFORMER “Running Wild”
INDEX 01 06:27:55
TRACK 03 AUDIO
TITLE “Evilution”
PERFORMER “Running Wild”
INDEX 00 10:56:11
INDEX 01 10:57:11
TRACK 04 AUDIO
TITLE “Running Blood”
PERFORMER “Running Wild”
INDEX 00 15:40:08
INDEX 01 15:41:08
TRACK 05 AUDIO
TITLE “Highland Glory (The Eternal Fight)”
PERFORMER “Running Wild”
INDEX 01 20:10:13
TRACK 06 AUDIO
TITLE “Marooned”
PERFORMER “Running Wild”
INDEX 00 24:59:58
INDEX 01 25:02:08
TRACK 07 AUDIO
TITLE “Bad To The Bone”
PERFORMER “Running Wild”
INDEX 01 30:14:50
TRACK 08 AUDIO
TITLE “Tortuga Bay”
PERFORMER “Running Wild”
INDEX 00 35:00:42
INDEX 01 35:00:67
TRACK 09 AUDIO
TITLE “Death Or Glory”
PERFORMER “Running Wild”
INDEX 01 38:17:53
TRACK 10 AUDIO
TITLE “Battle Of Waterloo”
PERFORMER “Running Wild”
INDEX 01 42:14:50
TRACK 11 AUDIO
TITLE “March On”
PERFORMER “Running Wild”
INDEX 00 50:02:24
INDEX 01 50:04:74
TRACK 12 AUDIO
TITLE “Wild Animal [Bonus]”
PERFORMER “Running Wild”
INDEX 00 54:11:14
INDEX 01 54:13:14
TRACK 13 AUDIO
TITLE “Chains & Leather [Bonus]”
PERFORMER “Running Wild”
INDEX 01 58:24:61
TRACK 14 AUDIO
TITLE “Tear Down The Walls [Bonus]”
PERFORMER “Running Wild”
INDEX 00 64:08:51
INDEX 01 64:11:11
TRACK 15 AUDIO
TITLE “Stortebeker [Bonus]”
PERFORMER “Running Wild”
INDEX 00 68:27:10
INDEX 01 68:28:70


Leave a Reply

Your email address will not be published. Required fields are marked *

Enter the text from the image below
 

This site uses Akismet to reduce spam. Learn how your comment data is processed.