Running Wild – Death Or Glory (Japanese Edition)




Artist: Running Wild
Year: 1989/1990
Genre: Rock
Notes: Discogs
Add. Notes: Japanese Edition
Cover incl.: Yes
Encoder: FLAC
Bitrate: ~1000 kBit/s (44.1 kHz/16 Bit/s)
Log & Cue incl.: Yes/Yes
Size: 523,5 MB
Password: “slam” (without ” “)


All Downloads/Hosters are compatible

Download 1
KatFile.com
Turbobit.net
FileFactory.com
Rapidgator.net
Download 2
KatFile.com
Turbobit.net
FileFactory.com
Rapidgator.net

Tracklist:

1 Riding The Storm 6:28
2 Renegade 4:30
3 Evilution 4:43
4 Running Blood 4:30
5 Highland Glory (The Eternal Fight) 4:52
6 Marooned 5:13
7 Bad To The Bone 4:46
8 Tortuga Bay 3:17
9 Death Or Glory 3:57
10 Battle Of Waterloo 7:48
11 March On 4:12

Bonus Track
12 Wild Animal 4:11
13 Tear Down The Walls 4:16
14 Störtebeker 4:06

EAC-Log, CUE-Sheed & NFO:

Click to open spoiler
Exact Audio Copy V1.0 beta 1 from 15. November 2010

EAC extraction logfile from 31. January 2011, 19:28

Running Wild / Death Or Glory

Used drive : PIONEER DVD-RW DVR-112D Adapter: 1 ID: 0

Read mode : Secure
Utilize accurate stream : Yes
Defeat audio cache : Yes
Make use of C2 pointers : No

Read offset correction : 48
Overread into Lead-In and Lead-Out : No
Fill up missing offset samples with silence : Yes
Delete leading and trailing silent blocks : No
Null samples used in CRC calculations : Yes
Used interface : Installed external ASPI interface

Used output format : User Defined Encoder
Selected bitrate : 768 kBit/s
Quality : High
Add ID3 tag : No
Command line compressor : C:\Program Files\Exact Audio Copy\FLAC\FLAC.EXE
Additional command line options : -6 -V -T “ARTIST=%a” -T “TITLE=%t” -T “ALBUM=%g” -T “DATE=%y” -T “TRACKNUMBER=%n” -T “GENRE=%m” -T “COMMENT=%e” %j–picture=”%i”%j %s -o %d

TOC of the extracted CD

Track | Start | Length | Start sector | End sector
———————————————————
1 | 0:00.00 | 6:28.60 | 0 | 29159
2 | 6:28.60 | 4:29.62 | 29160 | 49396
3 | 10:58.47 | 4:44.30 | 49397 | 70726
4 | 15:43.02 | 4:29.65 | 70727 | 90966
5 | 20:12.67 | 4:52.18 | 90967 | 112884
6 | 25:05.10 | 5:13.25 | 112885 | 136384
7 | 30:18.35 | 4:46.60 | 136385 | 157894
8 | 35:05.20 | 3:17.25 | 157895 | 172694
9 | 38:22.45 | 3:57.55 | 172695 | 190524
10 | 42:20.25 | 7:49.20 | 190525 | 225719
11 | 50:09.45 | 4:12.02 | 225720 | 244621
12 | 54:21.47 | 4:11.08 | 244622 | 263454
13 | 58:32.55 | 4:17.00 | 263455 | 282729
14 | 62:49.55 | 4:05.60 | 282730 | 301164

Range status and errors

Selected range

Filename C:\CDRip by deminbek\Running Wild – Death Or Glory.wav

Peak level 92.4 %
Extraction speed 0.5 X
Range quality 100.0 %
Test CRC C8A982FD
Copy CRC C8A982FD
Copy OK

No errors occurred

AccurateRip summary

Track 1 not present in database
Track 2 not present in database
Track 3 not present in database
Track 4 not present in database
Track 5 not present in database
Track 6 not present in database
Track 7 not present in database
Track 8 not present in database
Track 9 not present in database
Track 10 not present in database
Track 11 not present in database
Track 12 not present in database
Track 13 not present in database
Track 14 not present in database

None of the tracks are present in the AccurateRip database

End of status report

==== Log checksum 31FBBB59CEA18DB44479C2A1E44693A947D8548CC8310F7224B5D92BBBE79521 ====

REM GENRE “Heavy Metal”
REM DATE 1989
REM DISCID 9E0FAF0E
REM COMMENT “ExactAudioCopy v1.0b1”
PERFORMER “Running Wild”
TITLE “Death Or Glory”
FILE “Running Wild – Death Or Glory.flac” WAVE
TRACK 01 AUDIO
TITLE “Riding The Storm”
PERFORMER “Running Wild”
INDEX 01 00:00:00
TRACK 02 AUDIO
TITLE “Renegade”
PERFORMER “Running Wild”
INDEX 01 06:28:60
TRACK 03 AUDIO
TITLE “Evilution”
PERFORMER “Running Wild”
INDEX 01 10:58:47
TRACK 04 AUDIO
TITLE “Running Blood”
PERFORMER “Running Wild”
INDEX 01 15:43:02
TRACK 05 AUDIO
TITLE “Highland Glory”
PERFORMER “Running Wild”
INDEX 01 20:12:67
TRACK 06 AUDIO
TITLE “Marooned”
PERFORMER “Running Wild”
INDEX 01 25:05:10
TRACK 07 AUDIO
TITLE “Bad To The Bone”
PERFORMER “Running Wild”
INDEX 01 30:18:35
TRACK 08 AUDIO
TITLE “Tortuga Bay”
PERFORMER “Running Wild”
INDEX 01 35:05:20
TRACK 09 AUDIO
TITLE “Death Or Glory”
PERFORMER “Running Wild”
INDEX 01 38:22:45
TRACK 10 AUDIO
TITLE “Battle Of Waterloo”
PERFORMER “Running Wild”
INDEX 01 42:20:25
TRACK 11 AUDIO
TITLE “March On”
PERFORMER “Running Wild”
INDEX 01 50:09:45
TRACK 12 AUDIO
TITLE “Wild Animal”
PERFORMER “Running Wild”
INDEX 01 54:21:47
TRACK 13 AUDIO
TITLE “Tear Down The Walls”
PERFORMER “Running Wild”
INDEX 01 58:32:55
TRACK 14 AUDIO
TITLE “Stortebeker”
PERFORMER “Running Wild”
INDEX 01 62:49:55


Leave a Reply

Your email address will not be published. Required fields are marked *

Enter the text from the image below
 

This site uses Akismet to reduce spam. Learn how your comment data is processed.