Running Wild – Death Or Glory (Japanese Edition)




[Total: 0    Average: 0/5]

Artist: Running Wild
Year: 1989/1998
Genre: Metal
Notes: Discogs
Add. Notes: Japanese Edition
Cover incl.: Yes
Encoder: FLAC
Bitrate: ~1100 kBit/s (44.1 kHz/16 Bit/s)
Log & Cue incl.: Yes
Size: 570,8 MB
Password: “slam” (without ” “)


All Downloads/Hosters are compatible

Download 1
Share-online.biz
KatFile.com
Rapidgator.net
DoUploads.net
Download 2
Share-online.biz
KatFile.com
Rapidgator.net
DoUploads.net

Tracklist:

1 - Riding The Storm - 6:28
2 - Renegade - 4:30
3 - Evilution - 4:43
4 - Running Blood - 4:30
5 - Highland Glory (The Eternal Fight) - 4:52
6 - Marooned - 5:13
7 - Bad To The Bone - 4:46
8 - Tortuga Bay - 3:17
9 - Death Or Glory - 3:57
10 - Battle Of Waterloo - 7:48
11 - March On - 4:12
12 - Wild Animal - 4:11
13 - Tear Down The Walls - 4:16
14 - Störtebeker - 4:06

EAC-Log, CUE-Sheed & NFO:

Click to open spoiler
Exact Audio Copy V1.0 beta 3 from 29. August 2011

EAC extraction logfile from 31. January 2014, 11:56

Running Wild / Death Or Glory [Victor, VICP-60307, Japan]

Used drive : PIONEER DVD-RW DVR-112D Adapter: 0 ID: 0

Read mode : Secure
Utilize accurate stream : Yes
Defeat audio cache : Yes
Make use of C2 pointers : No

Read offset correction : 48
Overread into Lead-In and Lead-Out : No
Fill up missing offset samples with silence : Yes
Delete leading and trailing silent blocks : No
Null samples used in CRC calculations : Yes
Used interface : Installed external ASPI interface

Used output format : User Defined Encoder
Selected bitrate : 1024 kBit/s
Quality : High
Add ID3 tag : No
Command line compressor : C:\Program Files\Exact Audio Copy\FLAC\FLAC.EXE
Additional command line options : -V -8 -T “Date=%year%” -T “Genre=%genre%” %source%

TOC of the extracted CD

Track | Start | Length | Start sector | End sector
———————————————————
1 | 0:00.37 | 6:28.60 | 37 | 29196
2 | 6:29.22 | 4:29.55 | 29197 | 49426
3 | 10:59.02 | 4:44.55 | 49427 | 70781
4 | 15:43.57 | 4:29.60 | 70782 | 91016
5 | 20:13.42 | 4:52.15 | 91017 | 112931
6 | 25:05.57 | 5:13.23 | 112932 | 136429
7 | 30:19.05 | 4:46.62 | 136430 | 157941
8 | 35:05.67 | 3:17.23 | 157942 | 172739
9 | 38:23.15 | 3:57.55 | 172740 | 190569
10 | 42:20.70 | 7:49.22 | 190570 | 225766
11 | 50:10.17 | 4:11.73 | 225767 | 244664
12 | 54:22.15 | 4:11.10 | 244665 | 263499
13 | 58:33.25 | 4:16.50 | 263500 | 282749
14 | 62:50.00 | 4:06.35 | 282750 | 301234

Range status and errors

Selected range

Filename C:\CDRip by Deminbek\Running Wild – Death Or Glory [Victor, VICP-60307, Japan].wav

Peak level 100.0 %
Extraction speed 8.1 X
Range quality 100.0 %
Test CRC BF4B6F49
Copy CRC BF4B6F49
Copy OK

No errors occurred

AccurateRip summary

Track 1 accurately ripped (confidence 1) [485EE908] (AR v2)
Track 2 accurately ripped (confidence 1) [22B95891] (AR v2)
Track 3 accurately ripped (confidence 1) [4CCDA2AC] (AR v2)
Track 4 accurately ripped (confidence 1) [5E0D7467] (AR v2)
Track 5 accurately ripped (confidence 1) [C7AD37C1] (AR v2)
Track 6 accurately ripped (confidence 1) [DE940DDB] (AR v2)
Track 7 accurately ripped (confidence 1) [FE891042] (AR v2)
Track 8 accurately ripped (confidence 1) [91708807] (AR v2)
Track 9 accurately ripped (confidence 1) [03EF3AD5] (AR v2)
Track 10 accurately ripped (confidence 1) [96E6E9E2] (AR v2)
Track 11 accurately ripped (confidence 1) [51F3EE76] (AR v2)
Track 12 accurately ripped (confidence 1) [0C3E5C4B] (AR v2)
Track 13 accurately ripped (confidence 1) [D03E92D1] (AR v2)
Track 14 accurately ripped (confidence 1) [EACB01C1] (AR v2)

All tracks accurately ripped

End of status report

—- CUETools DB Plugin V2.1.3

[CTDB TOCID: q15faIA1fyhQpY50XrDnAazefOQ-] disk not present in database, Submit result: discs with pregaps not supported in this protocol version

==== Log checksum A6296FDAA1EF79AB83B2767A6B68A47AE3CC4819F21A85AD428A56F237970838 ====

REM GENRE “Heavy Metal”
REM DATE 1989
REM DISCID A70FB00E
REM COMMENT “ExactAudioCopy v1.0b3”
CATALOG 4988002366187
PERFORMER “Running Wild”
TITLE “Death Or Glory [Victor, VICP-60307, Japan]”
FILE “Running Wild – Death Or Glory [Victor, VICP-60307, Japan].flac” WAVE
TRACK 01 AUDIO
TITLE “Riding The Storm”
PERFORMER “Running Wild”
INDEX 00 00:00:00
INDEX 01 00:00:37
TRACK 02 AUDIO
TITLE “Renegade”
PERFORMER “Running Wild”
INDEX 01 06:29:22
TRACK 03 AUDIO
TITLE “Evilution”
PERFORMER “Running Wild”
INDEX 01 10:59:02
TRACK 04 AUDIO
TITLE “Running Blood”
PERFORMER “Running Wild”
INDEX 01 15:43:57
TRACK 05 AUDIO
TITLE “Highland Glory (The Eternal Fight)”
PERFORMER “Running Wild”
INDEX 01 20:13:42
TRACK 06 AUDIO
TITLE “Marooned”
PERFORMER “Running Wild”
INDEX 01 25:05:57
TRACK 07 AUDIO
TITLE “Bad To The Bone”
PERFORMER “Running Wild”
INDEX 01 30:19:05
TRACK 08 AUDIO
TITLE “Tortuga Bay”
PERFORMER “Running Wild”
INDEX 01 35:05:67
TRACK 09 AUDIO
TITLE “Death Or Glory”
PERFORMER “Running Wild”
INDEX 01 38:23:15
TRACK 10 AUDIO
TITLE “Battle Of Waterloo”
PERFORMER “Running Wild”
INDEX 01 42:20:70
TRACK 11 AUDIO
TITLE “March On”
PERFORMER “Running Wild”
INDEX 01 50:10:17
TRACK 12 AUDIO
TITLE “Wild Animal (Bonus)”
PERFORMER “Running Wild”
INDEX 01 54:22:15
TRACK 13 AUDIO
TITLE “Tear Down The Walls (Bonus)”
PERFORMER “Running Wild”
INDEX 01 58:33:25
TRACK 14 AUDIO
TITLE “Stortebeker (Bonus)”
PERFORMER “Running Wild”
INDEX 00 62:49:61
INDEX 01 62:50:00


Spread the Download

Leave a Reply

Your email address will not be published. Required fields are marked *

Enter the text from the image below
 

This site uses Akismet to reduce spam. Learn how your comment data is processed.