Running Wild – Death Or Glory




No Cover available

Artist: Running Wild
Year: 1989
Genre: Rock
Notes: Discogs
Add. Notes:
Cover incl.: Yes
Encoder: FLAC
Bitrate: ~1000 kBit/s (44.1 kHz/16 Bit/s)
Log & Cue incl.: Yes/Yes
Size: 523,5 MB
Password: “slam” (without ” “)


All Downloads/Hosters are compatible

Download 1
KatFile.com
Turbobit.net
FileFactory.com
Rapidgator.net
Download 2
KatFile.com
Turbobit.net
FileFactory.com
Rapidgator.net

Tracklist:

1 Riding The Storm 6:28
2 Renegade 4:30
3 Evilution 4:43
4 Running Blood 4:30
5 Highland Glory (The Eternal Fight) 4:52
6 Marooned 5:13
7 Bad To The Bone 4:46
8 Tortuga Bay 3:17
9 Death Or Glory 3:57
10 Battle Of Waterloo 7:48
11 March On 4:12
12 Wild Animal 4:11
13 Chains & Leather 5:46
14 Tear Down The Walls 4:17
15 Störtebeker 4:05

EAC-Log, CUE-Sheed & NFO:

Click to open spoiler
Exact Audio Copy V1.0 beta 3 from 29. August 2011

EAC extraction logfile from 22. January 2012, 21:40

Running Wild / Death Or Glory [WK 45495, USA]

Used drive : PIONEER DVD-RW DVR-112D Adapter: 1 ID: 0

Read mode : Secure
Utilize accurate stream : Yes
Defeat audio cache : Yes
Make use of C2 pointers : No

Read offset correction : 48
Overread into Lead-In and Lead-Out : No
Fill up missing offset samples with silence : Yes
Delete leading and trailing silent blocks : No
Null samples used in CRC calculations : Yes
Used interface : Installed external ASPI interface

Used output format : User Defined Encoder
Selected bitrate : 1024 kBit/s
Quality : High
Add ID3 tag : No
Command line compressor : C:\Program Files\Exact Audio Copy\FLAC\FLAC.EXE
Additional command line options : -V -8 -T “Date=%year%” -T “Genre=%genre%” %source%

TOC of the extracted CD

Track | Start | Length | Start sector | End sector
———————————————————
1 | 0:00.00 | 6:27.55 | 0 | 29079
2 | 6:27.55 | 4:29.30 | 29080 | 49284
3 | 10:57.10 | 4:43.55 | 49285 | 70564
4 | 15:40.65 | 4:29.05 | 70565 | 90744
5 | 20:09.70 | 4:53.25 | 90745 | 112744
6 | 25:03.20 | 5:12.47 | 112745 | 136191
7 | 30:15.67 | 4:47.50 | 136192 | 157766
8 | 35:03.42 | 3:16.65 | 157767 | 172531
9 | 38:20.32 | 3:57.08 | 172532 | 190314
10 | 42:17.40 | 7:49.00 | 190315 | 225489
11 | 50:06.40 | 4:13.02 | 225490 | 244466
12 | 54:19.42 | 4:11.48 | 244467 | 263339
13 | 58:31.15 | 5:46.20 | 263340 | 289309
14 | 64:17.35 | 4:17.00 | 289310 | 308584
15 | 68:34.35 | 4:05.70 | 308585 | 327029

Range status and errors

Selected range

Filename C:\CDRip by Deminbek\Running Wild – Death Or Glory [WK 45495, USA].wav

Peak level 100.0 %
Extraction speed 3.1 X
Range quality 100.0 %
Test CRC 3CDA81D3
Copy CRC 3CDA81D3
Copy OK

No errors occurred

AccurateRip summary

Track 1 not present in database
Track 2 not present in database
Track 3 not present in database
Track 4 not present in database
Track 5 not present in database
Track 6 not present in database
Track 7 not present in database
Track 8 not present in database
Track 9 not present in database
Track 10 not present in database
Track 11 not present in database
Track 12 not present in database
Track 13 not present in database
Track 14 not present in database
Track 15 not present in database

None of the tracks are present in the AccurateRip database

End of status report

==== Log checksum C7D3EBC1C68F680F1BDD10DFE95A1636C1DC6F5022DE4E054E02DB53C94BBF08 ====

REM GENRE “Heavy Metal”
REM DATE 1989
REM DISCID C411080F
REM COMMENT “ExactAudioCopy v1.0b3”
CATALOG 0000000000000
PERFORMER “Running Wild”
TITLE “Death Or Glory [WK 45495, USA]”
FILE “Running Wild – Death Or Glory [WK 45495, USA].flac” WAVE
TRACK 01 AUDIO
TITLE “Riding The Storm”
PERFORMER “Running Wild”
INDEX 01 00:00:00
TRACK 02 AUDIO
TITLE “Renegade”
PERFORMER “Running Wild”
INDEX 01 06:27:55
TRACK 03 AUDIO
TITLE “Evilution”
PERFORMER “Running Wild”
INDEX 01 10:57:10
TRACK 04 AUDIO
TITLE “Running Blood”
PERFORMER “Running Wild”
INDEX 01 15:40:65
TRACK 05 AUDIO
TITLE “Highland Glory (The Eternal Fight)”
PERFORMER “Running Wild”
INDEX 01 20:09:70
TRACK 06 AUDIO
TITLE “Marooned”
PERFORMER “Running Wild”
INDEX 01 25:03:20
TRACK 07 AUDIO
TITLE “Bad To The Bone”
PERFORMER “Running Wild”
INDEX 01 30:15:67
TRACK 08 AUDIO
TITLE “Tortuga Bay”
PERFORMER “Running Wild”
INDEX 01 35:03:42
TRACK 09 AUDIO
TITLE “Death Or Glory”
PERFORMER “Running Wild”
INDEX 01 38:20:32
TRACK 10 AUDIO
TITLE “Battle Of Waterloo”
PERFORMER “Running Wild”
INDEX 01 42:17:40
TRACK 11 AUDIO
TITLE “March On”
PERFORMER “Running Wild”
INDEX 01 50:06:40
TRACK 12 AUDIO
TITLE “Wild Animal [Bonus]”
PERFORMER “Running Wild”
INDEX 00 54:19:37
INDEX 01 54:19:42
TRACK 13 AUDIO
TITLE “Chains And Leather ’89 [Bonus]”
PERFORMER “Running Wild”
INDEX 01 58:31:15
TRACK 14 AUDIO
TITLE “Tear Down The Walls [Bonus]”
PERFORMER “Running Wild”
INDEX 01 64:17:35
TRACK 15 AUDIO
TITLE “Stortebeker [Bonus]”
PERFORMER “Running Wild”
INDEX 01 68:34:35


Leave a Reply

Your email address will not be published. Required fields are marked *

Enter the text from the image below
 

This site uses Akismet to reduce spam. Learn how your comment data is processed.