Running Wild – Death Or Glory




[Total: 0    Average: 0/5]

Artist: Running Wild
Year: 1995
Genre: Metal
Notes: Discogs
Add. Notes:
Cover incl.: Yes
Encoder: FLAC
Bitrate: ~1000 kBit/s (44.1 kHz/16 Bit/s)
Log & Cue incl.: Yes
Size: 478 MB
Password: “slam” (without ” “)


All Downloads/Hosters are compatible

Download 1
KatFile.com
Turbobit.net
FileFactory.com
Rapidgator.net
Download 2
KatFile.com
Turbobit.net
FileFactory.com
Rapidgator.net

Tracklist:

1 - Riding The Storm - 6:28
2 - Renegade - 4:30
3 - Evilution - 4:43
4 - Running Blood - 4:30
5 - Highland Glory (The Eternal 
Fight) - 4:52
6 - Marooned - 5:13
7 - Bad To The Bone - 4:46
8 - Tortuga Bay - 3:17
9 - Death Or Glory - 3:57
10 - Battle Of Waterloo - 7:48
11 - March On - 4:12

EAC-Log, CUE-Sheed & NFO:

Click to open spoiler
Exact Audio Copy V1.0 beta 3 from 29. August 2011

EAC extraction logfile from 24. February 2014, 17:51

Running Wild / Death Or Glory [N.CD.004ux]

Used drive : TSSTcorpCDDVDW SH-S223C Adapter: 0 ID: 0

Read mode : Secure
Utilize accurate stream : Yes
Defeat audio cache : Yes
Make use of C2 pointers : No

Read offset correction : 697
Overread into Lead-In and Lead-Out : No
Fill up missing offset samples with silence : Yes
Delete leading and trailing silent blocks : No
Null samples used in CRC calculations : Yes
Used interface : Installed external ASPI interface

Used output format : User Defined Encoder
Selected bitrate : 1024 kBit/s
Quality : High
Add ID3 tag : No
Command line compressor : C:\Program Files (x86)\Exact Audio Copy\Flac\flac.exe
Additional command line options : -V -8 -T “Date=%year%” -T “Genre=%genre%” %source%

TOC of the extracted CD

Track | Start | Length | Start sector | End sector
———————————————————
1 | 0:00.00 | 6:28.07 | 0 | 29106
2 | 6:28.07 | 4:29.48 | 29107 | 49329
3 | 10:57.55 | 4:43.57 | 49330 | 70611
4 | 15:41.37 | 4:29.18 | 70612 | 90804
5 | 20:10.55 | 4:52.22 | 90805 | 112726
6 | 25:03.02 | 5:12.53 | 112727 | 136179
7 | 30:15.55 | 4:46.17 | 136180 | 157646
8 | 35:01.72 | 3:16.70 | 157647 | 172416
9 | 38:18.67 | 3:57.25 | 172417 | 190216
10 | 42:16.17 | 7:48.23 | 190217 | 225339
11 | 50:04.40 | 4:11.45 | 225340 | 244209
12 | 54:16.10 | 4:40.65 | 244210 | 265274
13 | 58:57.00 | 4:20.02 | 265275 | 284776

Range status and errors

Selected range

Filename D:\CDRip by Ballcrusher\Running Wild – Death Or Glory [N.CD.004ux].wav

Peak level 100.0 %
Extraction speed 3.4 X
Range quality 100.0 %
Test CRC 9FA6CDAE
Copy CRC 9FA6CDAE
Copy OK

No errors occurred

AccurateRip summary

Track 1 accurately ripped (confidence 1) [BA67F55E] (AR v2)
Track 2 accurately ripped (confidence 1) [A7620A28] (AR v2)
Track 3 accurately ripped (confidence 1) [7A388583] (AR v2)
Track 4 accurately ripped (confidence 1) [A27ECB1A] (AR v2)
Track 5 accurately ripped (confidence 1) [1621846C] (AR v2)
Track 6 accurately ripped (confidence 1) [273DC2EC] (AR v2)
Track 7 accurately ripped (confidence 1) [71661AD3] (AR v2)
Track 8 accurately ripped (confidence 1) [DF41D676] (AR v2)
Track 9 accurately ripped (confidence 1) [4CFD1B55] (AR v2)
Track 10 accurately ripped (confidence 1) [54629E54] (AR v2)
Track 11 accurately ripped (confidence 1) [1A6E4718] (AR v2)
Track 12 accurately ripped (confidence 1) [B3AED0F6] (AR v2)
Track 13 cannot be verified as accurate (confidence 1) [B4724DA3], AccurateRip returned [9D44B267] (AR v2)

12 трек(и) скопированы точно
1 трек(и) не удалось проверить на точность

Some tracks could not be verified as accurate

End of status report

==== Log checksum 346476391539DB7618B7382F95162169CC764E1F99C89A34627181BE2B97519C ====

REM DATE 1989
REM DISCID A00ED50D
REM COMMENT “ExactAudioCopy v1.0b3”
PERFORMER “Running Wild”
TITLE “Death Or Glory [N.CD.004ux]”
FILE “Running Wild – Death Or Glory [N.CD.004ux].flac” WAVE
TRACK 01 AUDIO
TITLE “Riding The Storm”
PERFORMER “Running Wild”
INDEX 01 00:00:00
TRACK 02 AUDIO
TITLE “Renegade”
PERFORMER “Running Wild”
INDEX 01 06:28:07
TRACK 03 AUDIO
TITLE “Evilution”
PERFORMER “Running Wild”
INDEX 00 10:56:22
INDEX 01 10:57:55
TRACK 04 AUDIO
TITLE “Running Blood”
PERFORMER “Running Wild”
INDEX 00 15:40:07
INDEX 01 15:41:37
TRACK 05 AUDIO
TITLE “Highland Glory (The Eternal Fight)”
PERFORMER “Running Wild”
INDEX 01 20:10:55
TRACK 06 AUDIO
TITLE “Marooned”
PERFORMER “Running Wild”
INDEX 00 25:01:70
INDEX 01 25:03:02
TRACK 07 AUDIO
TITLE “Bad To The Bone”
PERFORMER “Running Wild”
INDEX 01 30:15:55
TRACK 08 AUDIO
TITLE “Tortuga Bay”
PERFORMER “Running Wild”
INDEX 01 35:01:72
TRACK 09 AUDIO
TITLE “Death Or Glory”
PERFORMER “Running Wild”
INDEX 01 38:18:67
TRACK 10 AUDIO
TITLE “Battle Of Waterloo”
PERFORMER “Running Wild”
INDEX 01 42:16:17
TRACK 11 AUDIO
TITLE “March On”
PERFORMER “Running Wild”
INDEX 00 50:03:65
INDEX 01 50:04:40
TRACK 12 AUDIO
TITLE “Hanged, Drawn And Quartered [Bonus]”
PERFORMER “Running Wild”
INDEX 00 54:15:37
INDEX 01 54:16:10
TRACK 13 AUDIO
TITLE “Win Or Be Drowned [Bonus]”
PERFORMER “Running Wild”
INDEX 00 58:55:55
INDEX 01 58:57:00


Spread the Download

Leave a Reply

Your email address will not be published. Required fields are marked *

Enter the text from the image below
 

This site uses Akismet to reduce spam. Learn how your comment data is processed.