Running Wild – Branded And Exiled




Artist: Running Wild
Year: 1985/1988
Genre: Metal
Notes: Discogs
Add. Notes:
Cover incl.: Yes
Encoder: FLAC
Bitrate: ~1000 kBit/s (44.1 kHz/16 Bit/s)
Log & Cue incl.: Yes
Size: 322,3 MB
Password: “slam” (without ” “)


All Downloads/Hosters are compatible

Download 1
NitroFlare.com
KatFile.com
Turbobit.net
Rapidgator.net
UploadRar.com
Download 2
NitroFlare.com
KatFile.com
Turbobit.net
Rapidgator.net
UploadRar.com

Tracklist:

1 - Branded And Exiled - 3:53
2 - Gods Of Iron - 4:01
3 - Realm Of Shades - 4:30
4 - Mordor - 4:50
5 - Fight The Oppression - 4:56
6 - Evil Spirit - 3:21
7 - Marching To Die - 4:36
8 - Chains And Leather - 5:42

EAC-Log, CUE-Sheed & NFO:

Click to open spoiler
Exact Audio Copy V1.0 beta 1 from 15. November 2010

EAC extraction logfile from 4. February 2011, 18:28

Running Wild / Branded And Exiled

Used drive : TOSHIBA ODD-DVD SD-R5272 Adapter: 0 ID: 1

Read mode : Secure
Utilize accurate stream : Yes
Defeat audio cache : Yes
Make use of C2 pointers : No

Read offset correction : 116
Overread into Lead-In and Lead-Out : No
Fill up missing offset samples with silence : Yes
Delete leading and trailing silent blocks : No
Null samples used in CRC calculations : Yes
Used interface : Installed external ASPI interface

Used output format : Internal WAV Routines
Sample format : 44.100 Hz; 16 Bit; Stereo

TOC of the extracted CD

Track | Start | Length | Start sector | End sector
———————————————————
1 | 0:00.00 | 3:53.62 | 0 | 17536
2 | 3:53.62 | 4:00.65 | 17537 | 35601
3 | 7:54.52 | 4:29.38 | 35602 | 55814
4 | 12:24.15 | 4:50.42 | 55815 | 77606
5 | 17:14.57 | 4:56.03 | 77607 | 99809
6 | 22:10.60 | 3:20.22 | 99810 | 114831
7 | 25:31.07 | 4:36.30 | 114832 | 135561
8 | 30:07.37 | 5:42.13 | 135562 | 161224

Range status and errors

Selected range

Filename D:\Running Wild – 1985 – Branded And Exiled\Running Wild – Branded And Exiled.wav

Peak level 100.0 %
Extraction speed 0.8 X
Range quality 100.0 %
Test CRC 45EE281F
Copy CRC 45EE281F
Copy OK

No errors occurred

AccurateRip summary

Track 1 accurately ripped (confidence 10) [7CDF9347]
Track 2 accurately ripped (confidence 10) [F5373E86]
Track 3 accurately ripped (confidence 10) [52C61909]
Track 4 accurately ripped (confidence 10) [D32F4D59]
Track 5 accurately ripped (confidence 9) [ED04EE4F]
Track 6 accurately ripped (confidence 10) [B4CD4105]
Track 7 accurately ripped (confidence 10) [730E9E25]
Track 8 accurately ripped (confidence 10) [77D06F22]

All tracks accurately ripped

End of status report

==== Log checksum 53E58EF524E2F99C60581B05F2FFBF62E702DAE8073468F553253855911345E6 ====

REM GENRE “Heavy Metal”
REM DATE 1985
REM DISCID 5F086508
REM COMMENT “ExactAudioCopy v1.0b1”
CATALOG “N 0030-3”
PERFORMER “Running Wild”
TITLE “Branded And Exiled”
FILE “Running Wild – Branded And Exiled.flac” WAVE
TRACK 01 AUDIO
TITLE “Branded And Exiled”
PERFORMER “Running Wild”
FLAGS PRE
INDEX 01 00:00:00
TRACK 02 AUDIO
TITLE “Gods Of Iron”
PERFORMER “Running Wild”
FLAGS PRE
INDEX 01 03:53:62
TRACK 03 AUDIO
TITLE “Realm Of Shades”
PERFORMER “Running Wild”
FLAGS PRE
INDEX 01 07:54:52
TRACK 04 AUDIO
TITLE “Mordor”
PERFORMER “Running Wild”
FLAGS PRE
INDEX 01 12:24:15
TRACK 05 AUDIO
TITLE “Fight The Oppression”
PERFORMER “Running Wild”
FLAGS PRE
INDEX 01 17:14:57
TRACK 06 AUDIO
TITLE “Evil Spirit”
PERFORMER “Running Wild”
FLAGS PRE
INDEX 01 22:10:60
TRACK 07 AUDIO
TITLE “Marching To Die”
PERFORMER “Running Wild”
FLAGS PRE
INDEX 01 25:31:07
TRACK 08 AUDIO
TITLE “Chains And Leather”
PERFORMER “Running Wild”
FLAGS PRE
INDEX 01 30:07:37


Leave a Reply

Your email address will not be published. Required fields are marked *

This site uses Akismet to reduce spam. Learn how your comment data is processed.