Running Wild – Blazon Stone




[Total: 0    Average: 0/5]

Artist: Running Wild
Year: 1991
Genre: Metal
Notes: Discogs
Add. Notes:
Cover incl.: Yes
Encoder: FLAC
Bitrate: ~1000 kBit/s (44.1 kHz/16 Bit/s)
Log & Cue incl.: Yes
Size: 527 MB
Password: “slam” (without ” “)


All Downloads/Hosters are compatible

Download 1
Share-online.biz
KatFile.com
Rapidgator.net
Mexa.sh
Download 2
Share-online.biz
KatFile.com
Rapidgator.net
Mexa.sh

Tracklist:

1 - Blazon Stone - 6:30
2 - Lonewolf - 4:49
3 - Slavery - 5:15
4 - Fire & Ice - 4:09
5 - Little Big Horn - 4:59
6 - Over The Rainbow - 1:55
7 - White Masque - 4:17
8 - Rolling Wheels - 5:33
9 - Bloody Red Rose - 5:06
10 - Straight To Hell - 3:50
11 - Heads Or Tails - 4:58
12 - Billy The Kid - 4:47
13 - Genocide - 4:47

EAC-Log, CUE-Sheed & NFO:

Click to open spoiler
Exact Audio Copy V0.99 prebeta 4 from 23. January 2008

EAC extraction logfile from 27. January 2011, 13:07

Running Wild / Blazon Stone [N 171-2]

Used drive : HL-DT-STDVDRAM GSA-T50F Adapter: 0 ID: 2

Read mode : Secure
Utilize accurate stream : Yes
Defeat audio cache : Yes
Make use of C2 pointers : No

Read offset correction : 667
Overread into Lead-In and Lead-Out : No
Fill up missing offset samples with silence : Yes
Delete leading and trailing silent blocks : No
Null samples used in CRC calculations : Yes
Used interface : Installed external ASPI interface

Used output format : Internal WAV Routines
Sample format : 44.100 Hz; 16 Bit; Stereo

TOC of the extracted CD

Track | Start | Length | Start sector | End sector
———————————————————
1 | 0:00.00 | 6:31.00 | 0 | 29324
2 | 6:31.00 | 4:48.52 | 29325 | 50976
3 | 11:19.52 | 5:15.23 | 50977 | 74624
4 | 16:35.00 | 4:09.00 | 74625 | 93299
5 | 20:44.00 | 4:58.37 | 93300 | 115686
6 | 25:42.37 | 1:55.55 | 115687 | 124366
7 | 27:38.17 | 4:17.08 | 124367 | 143649
8 | 31:55.25 | 5:32.47 | 143650 | 168596
9 | 37:27.72 | 5:05.35 | 168597 | 191506
10 | 42:33.32 | 3:50.33 | 191507 | 208789
11 | 46:23.65 | 4:57.62 | 208790 | 231126
12 | 51:21.52 | 4:47.38 | 231127 | 252689
13 | 56:09.15 | 4:47.15 | 252690 | 274229

Range status and errors

Selected range

Filename D:\Rip by Ballcrusher\Running Wild – Blazon Stone [N 171-2].wav

Peak level 100.0 %
Range quality 100.0 %
Copy CRC BE209DCE
Copy OK

No errors occurred

AccurateRip summary

Track 1 accurately ripped (confidence 6) [8687BC96]
Track 2 accurately ripped (confidence 7) [A14927D4]
Track 3 accurately ripped (confidence 7) [F274C799]
Track 4 accurately ripped (confidence 7) [7FA881F7]
Track 5 accurately ripped (confidence 7) [318217CE]
Track 6 accurately ripped (confidence 7) [D207F6E8]
Track 7 accurately ripped (confidence 7) [C62B0865]
Track 8 accurately ripped (confidence 7) [4845DE57]
Track 9 accurately ripped (confidence 7) [10229490]
Track 10 accurately ripped (confidence 6) [179056B4]
Track 11 accurately ripped (confidence 7) [7EAFFA8C]
Track 12 accurately ripped (confidence 7) [B6C91C30]
Track 13 accurately ripped (confidence 7) [1543EED5]

All tracks accurately ripped

End of status report

REM DATE “1991”
REM DISCID C70E480D
REM COMMENT “ExactAudioCopy v0.99pb4”
PERFORMER “Running Wild”
TITLE “Blazon Stone [N 171-2]”
FILE “Running Wild – Blazon Stone [N 171-2].flac” WAVE
TRACK 01 AUDIO
TITLE “Blazon Stone”
PERFORMER “Running Wild”
INDEX 01 00:00:00
TRACK 02 AUDIO
TITLE “Lonewolf”
PERFORMER “Running Wild”
INDEX 01 06:31:00
TRACK 03 AUDIO
TITLE “Slavery”
PERFORMER “Running Wild”
INDEX 01 11:19:52
TRACK 04 AUDIO
TITLE “Fire & Ice”
PERFORMER “Running Wild”
INDEX 01 16:35:00
TRACK 05 AUDIO
TITLE “Little Big Horn”
PERFORMER “Running Wild”
INDEX 01 20:44:00
TRACK 06 AUDIO
TITLE “Over The Rainbow”
PERFORMER “Running Wild”
INDEX 01 25:42:37
TRACK 07 AUDIO
TITLE “White Masque”
PERFORMER “Running Wild”
INDEX 01 27:38:17
TRACK 08 AUDIO
TITLE “Rolling Wheels”
PERFORMER “Running Wild”
INDEX 01 31:55:25
TRACK 09 AUDIO
TITLE “Bloody Red Rose”
PERFORMER “Running Wild”
INDEX 01 37:27:72
TRACK 10 AUDIO
TITLE “Straight To Hell”
PERFORMER “Running Wild”
INDEX 01 42:33:32
TRACK 11 AUDIO
TITLE “Heads Or Tails”
PERFORMER “Running Wild”
INDEX 01 46:23:65
TRACK 12 AUDIO
TITLE “Billy The Kid [Bonus]”
PERFORMER “Running Wild”
INDEX 01 51:21:52
TRACK 13 AUDIO
TITLE “Genocide [Bonus]”
PERFORMER “Running Wild”
INDEX 01 56:09:15


Spread the Download

Leave a Reply

Your email address will not be published. Required fields are marked *

Enter the text from the image below
 

This site uses Akismet to reduce spam. Learn how your comment data is processed.