Running Wild – Blazon Stone (Remastered)




[Total: 0    Average: 0/5]

Artist: Running Wild
Year: 1991/1999
Genre: Rock
Notes: Discogs
Add. Notes: Remastered
Cover incl.: Yes
Encoder: FLAC
Bitrate: ~1100 kBit/s (44.1 kHz/16 Bit/s)
Log & Cue incl.: Yes
Size: 609,8 MB
Password: “slam” (without ” “)


All Downloads/Hosters are compatible

Download 1
KatFile.com
Turbobit.net
FileFactory.com
Rapidgator.net
Download 2
KatFile.com
Turbobit.net
FileFactory.com
Rapidgator.net
Download 3
KatFile.com
Turbobit.net
FileFactory.com
Rapidgator.net

Tracklist:

1 Blazon Stone 6:31
2 Lonewolf 4:48
3 Slavery 5:15
4 Fire & Ice 4:08
5 Little Big Horn 4:59
6 Over The Rainbow 1:57
7 White Masque 4:19
8 Rolling Wheels 5:33
9 Bloody Red Rose 5:05
10 Straight To Hell 3:50
11 Heads Or Tails 4:59
12 Billy The Kid 4:47
13 Genocide 4:48

EAC-Log, CUE-Sheed & NFO:

Click to open spoiler
Exact Audio Copy V1.0 beta 3 from 29. August 2011

EAC extraction logfile from 1. March 2013, 12:36

Running Wild / Blazon Stone [Remaster] [UK, N 0320-2]

Used drive : HL-DT-STDVDRAM GSA-T50F Adapter: 0 ID: 2

Read mode : Secure
Utilize accurate stream : Yes
Defeat audio cache : Yes
Make use of C2 pointers : No

Read offset correction : 667
Overread into Lead-In and Lead-Out : No
Fill up missing offset samples with silence : Yes
Delete leading and trailing silent blocks : No
Null samples used in CRC calculations : Yes
Used interface : Installed external ASPI interface

Used output format : Internal WAV Routines
Sample format : 44.100 Hz; 16 Bit; Stereo

TOC of the extracted CD

Track | Start | Length | Start sector | End sector
———————————————————
1 | 0:00.00 | 6:30.28 | 0 | 29277
2 | 6:30.28 | 4:48.54 | 29278 | 50931
3 | 11:19.07 | 5:15.22 | 50932 | 74578
4 | 16:34.29 | 4:09.06 | 74579 | 93259
5 | 20:43.35 | 4:58.40 | 93260 | 115649
6 | 25:42.00 | 1:55.55 | 115650 | 124329
7 | 27:37.55 | 4:17.06 | 124330 | 143610
8 | 31:54.61 | 5:32.51 | 143611 | 168561
9 | 37:27.37 | 5:05.34 | 168562 | 191470
10 | 42:32.71 | 3:50.25 | 191471 | 208745
11 | 46:23.21 | 4:57.51 | 208746 | 231071
12 | 51:20.72 | 4:47.49 | 231072 | 252645
13 | 56:08.46 | 4:46.58 | 252646 | 274153

Range status and errors

Selected range

Filename D:\Rip by Ballcrusher\Running Wild – Blazon Stone [Remaster] [UK, N 0320-2].wav

Peak level 99.4 %
Extraction speed 4.2 X
Range quality 100.0 %
Test CRC 73BEB2EB
Copy CRC 73BEB2EB
Copy OK

No errors occurred

AccurateRip summary

Track 1 accurately ripped (confidence 2) [FD85F291] (AR v2)
Track 2 accurately ripped (confidence 2) [636D82EF] (AR v2)
Track 3 accurately ripped (confidence 2) [E410130A] (AR v2)
Track 4 accurately ripped (confidence 2) [D319BE10] (AR v2)
Track 5 accurately ripped (confidence 2) [69FA7FD4] (AR v2)
Track 6 accurately ripped (confidence 2) [E57BF48B] (AR v2)
Track 7 accurately ripped (confidence 2) [3584847C] (AR v2)
Track 8 accurately ripped (confidence 2) [47753135] (AR v2)
Track 9 accurately ripped (confidence 2) [5BF14AB6] (AR v2)
Track 10 accurately ripped (confidence 2) [A55CD8C4] (AR v2)
Track 11 accurately ripped (confidence 2) [283EA81B] (AR v2)
Track 12 accurately ripped (confidence 2) [CC40A5FE] (AR v2)
Track 13 accurately ripped (confidence 2) [E27D8A16] (AR v2)

All tracks accurately ripped

End of status report

==== Log checksum 5F6CA0201CA367FFE7C3848B7C847C09123FCE5E5A464BF9DB2EE0C5F542E993 ====

REM DATE 1991
REM DISCID C80E470D
REM COMMENT “ExactAudioCopy v1.0b3”
PERFORMER “Running Wild”
TITLE “Blazon Stone [Remaster] [UK, N 0320-2]”
FILE “Running Wild – Blazon Stone [Remaster] [UK, N 0320-2].flac” WAVE
TRACK 01 AUDIO
TITLE “Blazon Stone”
PERFORMER “Running Wild”
INDEX 01 00:00:00
TRACK 02 AUDIO
TITLE “Lonewolf”
PERFORMER “Running Wild”
INDEX 01 06:30:28
TRACK 03 AUDIO
TITLE “Slavery”
PERFORMER “Running Wild”
INDEX 01 11:19:07
TRACK 04 AUDIO
TITLE “Fire & Ice”
PERFORMER “Running Wild”
INDEX 01 16:34:29
TRACK 05 AUDIO
TITLE “Little Big Horn”
PERFORMER “Running Wild”
INDEX 00 20:42:35
INDEX 01 20:43:35
TRACK 06 AUDIO
TITLE “Over The Rainbow”
PERFORMER “Running Wild”
INDEX 01 25:42:00
TRACK 07 AUDIO
TITLE “White Masque”
PERFORMER “Running Wild”
INDEX 01 27:37:55
TRACK 08 AUDIO
TITLE “Rolling Wheels”
PERFORMER “Running Wild”
INDEX 01 31:54:61
TRACK 09 AUDIO
TITLE “Bloody Red Rose”
PERFORMER “Running Wild”
INDEX 01 37:27:37
TRACK 10 AUDIO
TITLE “Straight To Hell”
PERFORMER “Running Wild”
INDEX 01 42:32:71
TRACK 11 AUDIO
TITLE “Heads Or Tails”
PERFORMER “Running Wild”
INDEX 01 46:23:21
TRACK 12 AUDIO
TITLE “Billy The Kid”
PERFORMER “Running Wild”
INDEX 01 51:20:72
TRACK 13 AUDIO
TITLE “Genocide”
PERFORMER “Running Wild”
INDEX 01 56:08:46


Spread the Download

Leave a Reply

Your email address will not be published. Required fields are marked *

Enter the text from the image below
 

This site uses Akismet to reduce spam. Learn how your comment data is processed.