Running Wild – Blazon Stone (Japanese Edition)




Artist: Running Wild
Year: 1991/1998
Genre: Metal
Notes: Discogs
Add. Notes: Japanese Edition
Cover incl.: Yes
Encoder: FLAC
Bitrate: ~1000 kBit/s (44.1 kHz/16 Bit/s)
Log & Cue incl.: Yes
Size: 546,15 MB
Password: “slam” (without ” “)


All Downloads/Hosters are compatible

Download 1
Turbobit.net
NitroFlare.com
KatFile.com
Rapidgator.net
Download 2
Turbobit.net
NitroFlare.com
KatFile.com
Rapidgator.net

Tracklist:

1 - Blazon Stone - 6:30
2 - Lonewolf - 4:49
3 - Slavery - 5:15
4 - Fire & Ice - 4:09
5 - Little Big Horn - 4:59
6 - Over The Rainbow - 1:55
7 - White Masque - 4:17
8 - Rolling Wheels - 5:33
9 - Bloody Red Rose - 5:06
10 - Straight To Hell - 3:50
11 - Heads Or Tails - 4:58
12 - Billy The Kid - 4:47
13 - Genocide - 4:47

EAC-Log, CUE-Sheed & NFO:

Click to open spoiler
Exact Audio Copy V1.0 beta 3 from 29. August 2011

EAC extraction logfile from 24. February 2014, 16:18

Running Wild / Blazon Stone [VICP-60308]

Used drive : TSSTcorpCDDVDW SH-S223C Adapter: 0 ID: 0

Read mode : Secure
Utilize accurate stream : Yes
Defeat audio cache : Yes
Make use of C2 pointers : No

Read offset correction : 697
Overread into Lead-In and Lead-Out : No
Fill up missing offset samples with silence : Yes
Delete leading and trailing silent blocks : No
Null samples used in CRC calculations : Yes
Used interface : Installed external ASPI interface

Used output format : User Defined Encoder
Selected bitrate : 1024 kBit/s
Quality : High
Add ID3 tag : No
Command line compressor : C:\Program Files (x86)\Exact Audio Copy\Flac\flac.exe
Additional command line options : -V -8 -T “Date=%year%” -T “Genre=%genre%” %source%

TOC of the extracted CD

Track | Start | Length | Start sector | End sector
———————————————————
1 | 0:00.37 | 6:31.18 | 37 | 29379
2 | 6:31.55 | 4:48.52 | 29380 | 51031
3 | 11:20.32 | 5:15.25 | 51032 | 74681
4 | 16:35.57 | 4:08.50 | 74682 | 93331
5 | 20:44.32 | 4:58.60 | 93332 | 115741
6 | 25:43.17 | 1:55.55 | 115742 | 124421
7 | 27:38.72 | 4:17.08 | 124422 | 143704
8 | 31:56.05 | 5:32.47 | 143705 | 168651
9 | 37:28.52 | 5:05.38 | 168652 | 191564
10 | 42:34.15 | 3:50.30 | 191565 | 208844
11 | 46:24.45 | 4:58.20 | 208845 | 231214
12 | 51:22.65 | 4:48.27 | 231215 | 252841
13 | 56:11.17 | 4:48.73 | 252842 | 274514

Range status and errors

Selected range

Filename D:\CDRip by Ballcrusher\Running Wild – Blazon Stone [VICP-60308].wav

Peak level 100.0 %
Extraction speed 3.4 X
Range quality 100.0 %
Test CRC 421CE433
Copy CRC 421CE433
Copy OK

No errors occurred

AccurateRip summary

Track 1 accurately ripped (confidence 1) [7F8D60A1] (AR v2)
Track 2 accurately ripped (confidence 1) [C77EA31E] (AR v2)
Track 3 accurately ripped (confidence 1) [5DA044B9] (AR v2)
Track 4 accurately ripped (confidence 1) [A5215F6D] (AR v2)
Track 5 accurately ripped (confidence 1) [AC316F19] (AR v2)
Track 6 accurately ripped (confidence 1) [4D89A1B6] (AR v2)
Track 7 accurately ripped (confidence 1) [4677D8DE] (AR v2)
Track 8 accurately ripped (confidence 1) [D2FEFE1C] (AR v2)
Track 9 accurately ripped (confidence 1) [8AE92864] (AR v2)
Track 10 accurately ripped (confidence 1) [FBA4686F] (AR v2)
Track 11 accurately ripped (confidence 1) [FBCCAD8A] (AR v2)
Track 12 accurately ripped (confidence 1) [2965E9AC] (AR v2)
Track 13 accurately ripped (confidence 1) [EB3AAED9] (AR v2)

All tracks accurately ripped

End of status report

==== Log checksum 84A9DFCCE3E23510186C5C0679E3E059E474B988CAD896002F0849B16CD134A3 ====

REM DATE 1991
REM DISCID C70E4C0D
REM COMMENT “ExactAudioCopy v1.0b3”
PERFORMER “Running Wild”
TITLE “Blazon Stone [VICP-60308]”
FILE “Running Wild – Blazon Stone [VICP-60308].flac” WAVE
TRACK 01 AUDIO
TITLE “Blazon Stone”
PERFORMER “Running Wild”
INDEX 00 00:00:00
INDEX 01 00:00:37
TRACK 02 AUDIO
TITLE “Lonewolf”
PERFORMER “Running Wild”
INDEX 01 06:31:55
TRACK 03 AUDIO
TITLE “Slavery”
PERFORMER “Running Wild”
INDEX 01 11:20:32
TRACK 04 AUDIO
TITLE “Fire & Ice”
PERFORMER “Running Wild”
INDEX 01 16:35:57
TRACK 05 AUDIO
TITLE “Little Big Horn”
PERFORMER “Running Wild”
INDEX 00 20:44:06
INDEX 01 20:44:32
TRACK 06 AUDIO
TITLE “Over The Rainbow”
PERFORMER “Running Wild”
INDEX 01 25:43:17
TRACK 07 AUDIO
TITLE “White Masque”
PERFORMER “Running Wild”
INDEX 01 27:38:72
TRACK 08 AUDIO
TITLE “Rolling Wheels”
PERFORMER “Running Wild”
INDEX 01 31:56:05
TRACK 09 AUDIO
TITLE “Bloody Red Rose”
PERFORMER “Running Wild”
INDEX 01 37:28:52
TRACK 10 AUDIO
TITLE “Straight To Hell”
PERFORMER “Running Wild”
INDEX 01 42:34:15
TRACK 11 AUDIO
TITLE “Heads Or Tails”
PERFORMER “Running Wild”
INDEX 01 46:24:45
TRACK 12 AUDIO
TITLE “Billy The Kid”
PERFORMER “Running Wild”
INDEX 00 51:22:46
INDEX 01 51:22:65
TRACK 13 AUDIO
TITLE “Genocide”
PERFORMER “Running Wild”
INDEX 01 56:11:17


Leave a Reply

Your email address will not be published. Required fields are marked *

Enter the text from the image below
 

This site uses Akismet to reduce spam. Learn how your comment data is processed.