Running Wild – Black Hand Inn




[Total: 0    Average: 0/5]

Artist: Running Wild
Year: 1994
Genre: Metal
Notes: Discogs
Add. Notes:
Cover incl.: Yes
Encoder: FLAC
Bitrate: ~1000 kBit/s (44.1 kHz/16 Bit/s)
Log & Cue incl.: Yes
Size: 507,59 MB
Password: “slam” (without ” “)


All Downloads/Hosters are compatible

Download 1
Share-online.biz
KatFile.com
Rapidgator.net
NitroFlare.com
Download 2
Share-online.biz
KatFile.com
Rapidgator.net
NitroFlare.com

Tracklist:

1 - The Curse - 3:15
2 - Black Hand Inn - 4:32
3 - Mr. Deadhead - 4:02
4 - Soulless - 4:57
5 - The Privateer - 4:21
6 - Fight The Fire Of Hate - 6:38
7 - The Phantom Of Black Hand Hill - 6:26
8 - Freewind Rider - 5:16
9 - Powder & Iron - 5:18
10 - Dragonmen - 5:42
11 - Genesis (The Making And The Fall Of Man) - 15:21

EAC-Log, CUE-Sheed & NFO:

Click to open spoiler
Exact Audio Copy V1.0 beta 3 from 29. August 2011

EAC extraction logfile from 26. March 2013, 12:47

Running Wild / Black Hand Inn [Holland, 7243 8 29160 2 4]

Used drive : HL-DT-STDVDRAM GSA-T50F Adapter: 0 ID: 2

Read mode : Secure
Utilize accurate stream : Yes
Defeat audio cache : Yes
Make use of C2 pointers : No

Read offset correction : 667
Overread into Lead-In and Lead-Out : No
Fill up missing offset samples with silence : Yes
Delete leading and trailing silent blocks : No
Null samples used in CRC calculations : Yes
Used interface : Installed external ASPI interface

Used output format : Internal WAV Routines
Sample format : 44.100 Hz; 16 Bit; Stereo

TOC of the extracted CD

Track | Start | Length | Start sector | End sector
———————————————————
1 | 0:00.00 | 3:13.35 | 0 | 14509
2 | 3:13.35 | 4:31.30 | 14510 | 34864
3 | 7:44.65 | 4:03.55 | 34865 | 53144
4 | 11:48.45 | 4:57.02 | 53145 | 75421
5 | 16:45.47 | 4:21.48 | 75422 | 95044
6 | 21:07.20 | 6:40.12 | 95045 | 125056
7 | 27:47.32 | 6:23.18 | 125057 | 153799
8 | 34:10.50 | 5:17.50 | 153800 | 177624
9 | 39:28.25 | 5:18.12 | 177625 | 201486
10 | 44:46.37 | 5:42.13 | 201487 | 227149
11 | 50:28.50 | 15:19.47 | 227150 | 296121

Range status and errors

Selected range

Filename D:\Rip by Ballcrusher\Running Wild – Black Hand Inn [Holland, 7243 8 29160 2 4].wav

Peak level 99.2 %
Extraction speed 4.2 X
Range quality 100.0 %
Test CRC C34F4C9A
Copy CRC C34F4C9A
Copy OK

No errors occurred

AccurateRip summary

Track 1 accurately ripped (confidence 7) [9CE3FCDB] (AR v2)
Track 2 accurately ripped (confidence 7) [CE289583] (AR v2)
Track 3 accurately ripped (confidence 7) [2240EC36] (AR v2)
Track 4 accurately ripped (confidence 7) [F3B5A13C] (AR v2)
Track 5 accurately ripped (confidence 7) [4CE6A314] (AR v2)
Track 6 accurately ripped (confidence 7) [4A0AF391] (AR v2)
Track 7 accurately ripped (confidence 7) [6F0104D8] (AR v2)
Track 8 accurately ripped (confidence 7) [8CEAC0BA] (AR v2)
Track 9 accurately ripped (confidence 6) [CB4CD632] (AR v2)
Track 10 accurately ripped (confidence 7) [E0453A2A] (AR v2)
Track 11 accurately ripped (confidence 6) [BB01D45C] (AR v2)

All tracks accurately ripped

End of status report

==== Log checksum E1CDB1F6E9D7CFA304FFF68E4505B08FCB64E46D2313F861BE53C49E4BC97E9D ====

REM DATE 1994
REM DISCID 8C0F6C0B
REM COMMENT “ExactAudioCopy v1.0b3”
PERFORMER “Running Wild”
TITLE “Black Hand Inn [Holland, 7243 8 29160 2 4]”
FILE “Running Wild – Black Hand Inn [Holland, 7243 8 29160 2 4].flac” WAVE
TRACK 01 AUDIO
TITLE “The Curse”
PERFORMER “Running Wild”
INDEX 01 00:00:00
TRACK 02 AUDIO
TITLE “Black Hand Inn”
PERFORMER “Running Wild”
INDEX 00 03:13:32
INDEX 01 03:13:35
TRACK 03 AUDIO
TITLE “Mr. Deadhead”
PERFORMER “Running Wild”
INDEX 00 07:44:62
INDEX 01 07:44:65
TRACK 04 AUDIO
TITLE “Soulless”
PERFORMER “Running Wild”
INDEX 00 11:46:67
INDEX 01 11:48:45
TRACK 05 AUDIO
TITLE “The Privateer”
PERFORMER “Running Wild”
INDEX 00 16:44:37
INDEX 01 16:45:47
TRACK 06 AUDIO
TITLE “Fight The Fire Of Hate”
PERFORMER “Running Wild”
INDEX 00 21:06:17
INDEX 01 21:07:20
TRACK 07 AUDIO
TITLE “The Phantom Of Black Hand Hill”
PERFORMER “Running Wild”
INDEX 00 27:44:62
INDEX 01 27:47:32
TRACK 08 AUDIO
TITLE “Freewind Rider”
PERFORMER “Running Wild”
INDEX 00 34:09:70
INDEX 01 34:10:50
TRACK 09 AUDIO
TITLE “Powder & Iron”
PERFORMER “Running Wild”
INDEX 00 39:26:17
INDEX 01 39:28:25
TRACK 10 AUDIO
TITLE “Dragonmen”
PERFORMER “Running Wild”
INDEX 00 44:44:35
INDEX 01 44:46:37
TRACK 11 AUDIO
TITLE “Genesis (The Making And The Fall Of Man)”
PERFORMER “Running Wild”
INDEX 00 50:26:40
INDEX 01 50:28:50


Spread the Download

Leave a Reply

Your email address will not be published. Required fields are marked *

Enter the text from the image below
 

This site uses Akismet to reduce spam. Learn how your comment data is processed.