Running Wild – Black Hand Inn (Remastered)




[Total: 0    Average: 0/5]

Artist: Running Wild
Year: 1994/1999
Genre: Metal
Notes: Discogs
Add. Notes: Remastered
Cover incl.: Yes
Encoder: FLAC
Bitrate: ~1000 kBit/s (44.1 kHz/16 Bit/s)
Log & Cue incl.: Yes
Size: 563,15 MB
Password: “slam” (without ” “)


All Downloads/Hosters are compatible

Download 1
Share-online.biz
KatFile.com
Rapidgator.net
Download 2
Share-online.biz
KatFile.com
Rapidgator.net

Tracklist:

1 - The Curse - 3:15
2 - Black Hand Inn - 4:32
3 - Mr. Deadhead - 4:02
4 - Soulless - 4:57
5 - The Privateer - 4:21
6 - Fight The Fire Of Hate - 6:38
7 - The Phantom Of Black Hand Hill - 6:25
8 - Freewind Rider - 5:15
9 - Powder & Iron - 5:18
10 - Dragonmen - 5:42
11 - Genesis (The Making And Fall Of Man) - 15:18
12 - Dancing On A Minefield (Bonus Track) - 5:00
13 - Poisoned Blood (Bonus Track) - 3:44

EAC-Log, CUE-Sheed & NFO:

Click to open spoiler
EAC extraction logfile from 27. June 2006, 18:35 for CD
RUNNING WILD / Black Hand Inn

Used drive : TOSHIBA DVD-ROM SD-M1612 Adapter: 1 ID: 1
Read mode : Secure with NO C2, accurate stream, disable cache
Read offset correction : -472
Overread into Lead-In and Lead-Out : No

Used output format : F:\eac095pb5\MAC.EXE (Monkey’s Audio Lossless Encoder)
High Lossless Compression

Other options :
Fill up missing offset samples with silence : Yes
Delete leading and trailing silent blocks : No
Native Win32 interface for Win NT & 2000

Range status and errors
Selected range
Filename F:\tmp\CDImage.wav

Peak level 99.4 %
Range quality 99.9 %
CRC B6759D1E
Copy OK

No errors occured

End of status report

REM GENRE Heavy Metal
REM DATE 1994
PERFORMER “Running Wild”
TITLE “Black Hand Inn”
FILE “Running Wild – Black Hand Inn.flac” WAVE
TRACK 01 AUDIO
TITLE “The Curse”
INDEX 01 00:00:00
TRACK 02 AUDIO
TITLE “Black Hand Inn”
INDEX 01 03:12:46
TRACK 03 AUDIO
TITLE “Mr. Deadhead”
INDEX 00 07:44:16
INDEX 01 07:46:26
TRACK 04 AUDIO
TITLE “Soulless”
INDEX 00 11:47:69
INDEX 01 11:49:19
TRACK 05 AUDIO
TITLE “The Privateer”
INDEX 01 16:44:74
TRACK 06 AUDIO
TITLE “Fight The Fire Of Hate”
INDEX 00 21:05:20
INDEX 01 21:06:45
TRACK 07 AUDIO
TITLE “The Phantom Of Black Hand Hill”
INDEX 00 27:43:62
INDEX 01 27:46:47
TRACK 08 AUDIO
TITLE “Freewind Rider”
INDEX 00 34:09:06
INDEX 01 34:09:56
TRACK 09 AUDIO
TITLE “Powder & Iron”
INDEX 00 39:25:01
INDEX 01 39:27:31
TRACK 10 AUDIO
TITLE “Dragonmen”
INDEX 00 44:43:20
INDEX 01 44:45:45
TRACK 11 AUDIO
TITLE “Genesis (The Making And The Fall Of Man)”
INDEX 00 50:25:21
INDEX 01 50:27:58
TRACK 12 AUDIO
TITLE “Dancing On A Minefield”
INDEX 00 65:47:06
INDEX 01 65:49:06
TRACK 13 AUDIO
TITLE “Poisoned Blood”
INDEX 00 70:47:18
INDEX 01 70:48:18


Spread the Download

Leave a Reply

Your email address will not be published. Required fields are marked *

Enter the text from the image below
 

This site uses Akismet to reduce spam. Learn how your comment data is processed.