Running Wild – Black Hand Inn (Japanese Edition)




No Cover available

Artist: Running Wild
Year: 1994
Genre: Metal
Notes: Discogs
Add. Notes: Japanese Edition
Watch Songs on: YouTube
Cover incl.: Yes
Encoder: FLAC
Bitrate: ~800 kBit/s (44.1 kHz/16 Bit/s)
Log & Cue incl.: Yes/Yes
Size: 641,3 MB
Password: “slam” (without ” “)


All Downloads/Hosters are compatible

Download 1
KatFile.com
Turbobit.net
Rapidgator.net
FileFactory.com
Download 2
KatFile.com
Turbobit.net
Rapidgator.net
FileFactory.com

Tracklist:

1 - The Curse - 3:15
2 - Black Hand Inn - 4:32
3 - Mr. Deadhead - 4:02
4 - Soulless - 4:57
5 - The Privateer - 4:21
6 - Fight The Fire Of Hate - 6:38
7 - The Phantom Of Black Hand Hill - 6:25
8 - Freewind Rider - 5:15
9 - Powder & Iron - 5:18
10 - Dragonmen - 5:42
11 - Genesis (The Making And Fall Of Man) - 15:18

Bonus Track
12 - Poisoned Blood - 3:44
13 - Dancing On A Minefield - 5:00

EAC-Log, CUE-Sheed & NFO:

Click to open spoiler
Exact Audio Copy V1.0 beta 3 from 29. August 2011

EAC extraction logfile from 1. March 2012, 17:02

Running Wild / Black Hand Inn [Japan, Victor, VICP-5362, 1994]

Used drive : HL-DT-STDVDRAM GSA-T50F Adapter: 0 ID: 2

Read mode : Secure
Utilize accurate stream : Yes
Defeat audio cache : Yes
Make use of C2 pointers : No

Read offset correction : 667
Overread into Lead-In and Lead-Out : No
Fill up missing offset samples with silence : Yes
Delete leading and trailing silent blocks : No
Null samples used in CRC calculations : Yes
Used interface : Installed external ASPI interface

Used output format : Internal WAV Routines
Sample format : 44.100 Hz; 16 Bit; Stereo

TOC of the extracted CD

Track | Start | Length | Start sector | End sector
———————————————————
1 | 0:00.37 | 3:13.30 | 37 | 14541
2 | 3:13.67 | 4:31.25 | 14542 | 34891
3 | 7:45.17 | 4:03.55 | 34892 | 53171
4 | 11:48.72 | 4:57.02 | 53172 | 75448
5 | 16:45.74 | 4:21.48 | 75449 | 95071
6 | 21:07.47 | 6:40.12 | 95072 | 125083
7 | 27:47.59 | 6:23.18 | 125084 | 153826
8 | 34:11.02 | 5:17.50 | 153827 | 177651
9 | 39:28.52 | 5:18.15 | 177652 | 201516
10 | 44:46.67 | 5:42.10 | 201517 | 227176
11 | 50:29.02 | 15:20.52 | 227177 | 296228
12 | 65:49.54 | 3:43.50 | 296229 | 313003
13 | 69:33.29 | 5:00.48 | 313004 | 335551

Range status and errors

Selected range

Filename D:\Rip by Ballcrusher\Running Wild – Black Hand Inn [Japan, Victor, VICP-5362, 1994].wav

Peak level 99.2 %
Extraction speed 4.3 X
Range quality 99.9 %
Test CRC AC8AF44F
Copy CRC AC8AF44F
Copy OK

No errors occurred

AccurateRip summary

Track 1 not present in database
Track 2 not present in database
Track 3 not present in database
Track 4 not present in database
Track 5 not present in database
Track 6 not present in database
Track 7 not present in database
Track 8 not present in database
Track 9 not present in database
Track 10 not present in database
Track 11 not present in database
Track 12 not present in database
Track 13 not present in database

None of the tracks are present in the AccurateRip database

End of status report

==== Log checksum ECB938FE2948D7716502583DEB1C982EFBA1DFA92B28EA7056195529C544648E ====

REM DATE 1994
REM DISCID B2117A0D
REM COMMENT “ExactAudioCopy v1.0b3”
PERFORMER “Running Wild”
TITLE “Black Hand Inn [Japan, Victor, VICP-5362, 1994]”
FILE “Running Wild – Black Hand Inn [Japan, Victor, VICP-5362, 1994].flac” WAVE
TRACK 01 AUDIO
TITLE “The Curse”
PERFORMER “Running Wild”
INDEX 00 00:00:00
INDEX 01 00:00:37
TRACK 02 AUDIO
TITLE “Black Hand Inn”
PERFORMER “Running Wild”
INDEX 01 03:13:67
TRACK 03 AUDIO
TITLE “Mr. Deadhead”
PERFORMER “Running Wild”
INDEX 00 07:45:10
INDEX 01 07:45:17
TRACK 04 AUDIO
TITLE “Soulless”
PERFORMER “Running Wild”
INDEX 00 11:47:28
INDEX 01 11:48:72
TRACK 05 AUDIO
TITLE “The Privateer”
PERFORMER “Running Wild”
INDEX 00 16:45:05
INDEX 01 16:45:74
TRACK 06 AUDIO
TITLE “Fight The Fire Of Hate”
PERFORMER “Running Wild”
INDEX 00 21:06:53
INDEX 01 21:07:47
TRACK 07 AUDIO
TITLE “The Phantom Of Black Hand Inn”
PERFORMER “Running Wild”
INDEX 00 27:45:20
INDEX 01 27:47:59
TRACK 08 AUDIO
TITLE “Freewind Rider”
PERFORMER “Running Wild”
INDEX 00 34:10:33
INDEX 01 34:11:02
TRACK 09 AUDIO
TITLE “Powder & Iron”
PERFORMER “Running Wild”
INDEX 00 39:26:58
INDEX 01 39:28:52
TRACK 10 AUDIO
TITLE “Dragonmen”
PERFORMER “Running Wild”
INDEX 00 44:44:73
INDEX 01 44:46:67
TRACK 11 AUDIO
TITLE “Genesis (The Making And The Fall Of Man)”
PERFORMER “Running Wild”
INDEX 00 50:27:03
INDEX 01 50:29:02
TRACK 12 AUDIO
TITLE “Poisoned Blood [Bonus]”
PERFORMER “Running Wild”
INDEX 00 65:48:43
INDEX 01 65:49:54
TRACK 13 AUDIO
TITLE “Dancing On A Minefield [Bonus]”
PERFORMER “Running Wild”
INDEX 00 69:32:53
INDEX 01 69:33:29


0

Publication author

offline 14 hours

Chaos

3
Comments: 4Publics: 3418Registration: 02-02-2019
Spread the Download

Leave a Reply

Your email address will not be published. Required fields are marked *

Enter the text from the image below
 

This site uses Akismet to reduce spam. Learn how your comment data is processed.