Running Wild – Black Demons On Stage




No Cover available

Artist: Running Wild
Year: 2010
Genre: Metal
Notes: Discogs
Add. Notes:
Watch Songs on: YouTube
Cover incl.: Yes
Encoder: FLAC
Bitrate: ~800 kBit/s (44.1 kHz/16 Bit/s)
Log & Cue incl.: Yes/Yes
Size: 434,5 MB
Password: “slam” (without ” “)


All Downloads/Hosters are compatible

Download 1
KatFile.com
Turbobit.net
Rapidgator.net
FileFactory.com
Download 2
KatFile.com
Turbobit.net
Rapidgator.net
FileFactory.com

Tracklist:

Recorded Live At The Metal Hammer Festival, Loreley, 
Germany, 14/09/1985
1 Diabolic Force 
2 Black Demon 
3 Mordor 
4 Preacher 
5 Victim Of States Power 
6 Genghis Khan 
7 Fight The Oppression 
8 Branded And Exiled 
Taken From Their "Rock From Hell" Demo 1981
9 Hallow The Hell 
10 Warchild 
11 King Of The Midnight Fire 
Taken From Their "Heavy Metal Like A Hammerblow" 
Demo Compilation 1984
12 Intro + Warchild 
13 Hallow The Hell 
14 Genghis Khan - Live 
15 Adrian (Son Of Satan) 
16 Chains And Leather 
17 Soldiers Of Hell - Live 
Taken From Their "Death Metal" Demo 1984
18 Iron Heads 
19 Bones To Ashes

EAC-Log, CUE-Sheed & NFO:

Click to open spoiler
REM GENRE “Heavy Metal”
REM DATE 2010
REM DISCID 0D123E13
REM COMMENT “ExactAudioCopy v1.0b3”
PERFORMER “Running Wild”
TITLE “Black Demons On Stage [Demolition Records 001]”
FILE “Running Wild – Black Demons On Stage [Demolition Records 001].flac” WAVE
TRACK 01 AUDIO
TITLE “Diabolic Force [Live at the Loreley Metal Festival, 14.09.85]”
PERFORMER “Running Wild”
ISRC 000000000000
INDEX 01 00:00:00
TRACK 02 AUDIO
TITLE “Black Demon [Live at the Loreley Metal Festival, 14.09.85]”
PERFORMER “Running Wild”
ISRC 000000000000
INDEX 01 05:22:69
TRACK 03 AUDIO
TITLE “Mordor [Live at the Loreley Metal Festival, 14.09.85]”
PERFORMER “Running Wild”
ISRC 000000000000
INDEX 01 09:19:02
TRACK 04 AUDIO
TITLE “Preacher [Live at the Loreley Metal Festival, 14.09.85]”
PERFORMER “Running Wild”
ISRC 000000000000
INDEX 01 14:20:23
TRACK 05 AUDIO
TITLE “Victim Of States Power [Live at the Loreley Metal Festival, 14.09.85]”
PERFORMER “Running Wild”
ISRC 000000000000
INDEX 01 19:17:59
TRACK 06 AUDIO
TITLE “Genghis Khan [Live at the Loreley Metal Festival, 14.09.85]”
PERFORMER “Running Wild”
ISRC 000000000000
INDEX 01 22:19:63
TRACK 07 AUDIO
TITLE “Fight The Oppression [Live at the Loreley Metal Festival, 14.09.85]”
PERFORMER “Running Wild”
ISRC 000000000000
INDEX 01 26:45:69
TRACK 08 AUDIO
TITLE “Branded & Exiled [Live at the Loreley Metal Festival, 14.09.85]”
PERFORMER “Running Wild”
ISRC 000000000000
INDEX 01 31:52:68
TRACK 09 AUDIO
TITLE “Hallow The Hell [‘Rock From Hell’, Demo 1981]”
PERFORMER “Running Wild”
ISRC 000000000000
INDEX 01 39:51:20
TRACK 10 AUDIO
TITLE “Warchild [‘Rock From Hell’, Demo 1981]”
PERFORMER “Running Wild”
ISRC 000000000000
INDEX 01 41:22:51
TRACK 11 AUDIO
TITLE “King Of The Midnight Fire [‘Rock From Hell’, Demo 1981]”
PERFORMER “Running Wild”
ISRC 000000000000
INDEX 01 43:53:43
TRACK 12 AUDIO
TITLE “Intro+Warchild [‘Heavy Metal Like a Hammerblow’ Demo Compilation]”
PERFORMER “Running Wild”
ISRC 000000000000
INDEX 01 46:53:64
TRACK 13 AUDIO
TITLE “Hallow The Hell [‘Heavy Metal Like a Hammerblow’ Demo Compilation]”
PERFORMER “Running Wild”
ISRC 000000000000
INDEX 01 51:18:44
TRACK 14 AUDIO
TITLE “Genghis Khan – Live [‘Heavy Metal Like a Hammerblow’ Demo Compilation]”
PERFORMER “Running Wild”
ISRC 000000000000
INDEX 01 52:58:05
TRACK 15 AUDIO
TITLE “Adrian (Son Of Satan) [‘Heavy Metal Like a Hammerblow’ Demo Compilation]”
PERFORMER “Running Wild”
ISRC 000000000000
INDEX 01 57:00:62
TRACK 16 AUDIO
TITLE “Chains And Leather [‘Heavy Metal Like a Hammerblow’ Demo Compilation]”
PERFORMER “Running Wild”
ISRC 000000000000
INDEX 01 60:46:26
TRACK 17 AUDIO
TITLE “Soldiers Of Hell – Live [‘Heavy Metal Like a Hammerblow’ Demo Compilation]”
PERFORMER “Running Wild”
ISRC 000000000000
INDEX 01 65:58:43
TRACK 18 AUDIO
TITLE “Iron Heads [‘Death Metal’, Demo 1984]”
PERFORMER “Running Wild”
ISRC 000000000000
INDEX 01 69:17:53
TRACK 19 AUDIO
TITLE “Bones To Ashes [‘Death Metal’, Demo 1984]”
PERFORMER “Running Wild”
ISRC 000000000000
INDEX 01 72:50:56

Exact Audio Copy V1.0 beta 3 from 29. August 2011

EAC extraction logfile from 6. February 2013, 15:03

Running Wild / Black Demons On Stage [Demolition Records 001]

Used drive : PIONEER DVD-RW DVR-220L Adapter: 3 ID: 0

Read mode : Secure
Utilize accurate stream : Yes
Defeat audio cache : Yes
Make use of C2 pointers : No

Read offset correction : 6
Overread into Lead-In and Lead-Out : No
Fill up missing offset samples with silence : Yes
Delete leading and trailing silent blocks : No
Null samples used in CRC calculations : Yes
Used interface : Installed external ASPI interface

Used output format : User Defined Encoder
Selected bitrate : 1024 kBit/s
Quality : High
Add ID3 tag : No
Command line compressor : C:\Program Files\Exact Audio Copy\FLAC\FLAC.EXE
Additional command line options : -V -8 -T “Date=%year%” -T “Genre=%genre%” %source%

TOC of the extracted CD

Track | Start | Length | Start sector | End sector
———————————————————
1 | 0:00.00 | 5:22.69 | 0 | 24218
2 | 5:22.69 | 3:56.08 | 24219 | 41926
3 | 9:19.02 | 5:01.21 | 41927 | 64522
4 | 14:20.23 | 4:57.36 | 64523 | 86833
5 | 19:17.59 | 3:02.04 | 86834 | 100487
6 | 22:19.63 | 4:26.06 | 100488 | 120443
7 | 26:45.69 | 5:06.74 | 120444 | 143467
8 | 31:52.68 | 7:58.27 | 143468 | 179344
9 | 39:51.20 | 1:31.31 | 179345 | 186200
10 | 41:22.51 | 2:30.67 | 186201 | 197517
11 | 43:53.43 | 3:00.21 | 197518 | 211038
12 | 46:53.64 | 4:24.55 | 211039 | 230893
13 | 51:18.44 | 1:39.36 | 230894 | 238354
14 | 52:58.05 | 4:02.57 | 238355 | 256561
15 | 57:00.62 | 3:45.39 | 256562 | 273475
16 | 60:46.26 | 5:12.17 | 273476 | 296892
17 | 65:58.43 | 3:19.10 | 296893 | 311827
18 | 69:17.53 | 3:33.03 | 311828 | 327805
19 | 72:50.56 | 4:59.23 | 327806 | 350253

Range status and errors

Selected range

Filename E:\CDRip by Deminbek\Running Wild – Black Demons On Stage [Demolition Records 001].wav

Peak level 100.0 %
Extraction speed 8.4 X
Range quality 100.0 %
Test CRC 286C75A7
Copy CRC 286C75A7
Copy OK

No errors occurred

AccurateRip summary

Track 1 not present in database
Track 2 not present in database
Track 3 not present in database
Track 4 not present in database
Track 5 not present in database
Track 6 not present in database
Track 7 not present in database
Track 8 not present in database
Track 9 not present in database
Track 10 not present in database
Track 11 not present in database
Track 12 not present in database
Track 13 not present in database
Track 14 not present in database
Track 15 not present in database
Track 16 not present in database
Track 17 not present in database
Track 18 not present in database
Track 19 not present in database

None of the tracks are present in the AccurateRip database

End of status report

—- CUETools DB Plugin V2.1.3

[CTDB TOCID: STSAvlV6YWq9lV65kDgid3146gc-] disk not present in database, Submit result: STSAvlV6YWq9lV65kDgid3146gc- has been uploaded

==== Log checksum 6E56C7881403AF765A8282B62505B4B408125611CCAFDC4D0DE8FA5A0AEF70F1 ====


0

Publication author

offline 14 hours

Chaos

3
Comments: 4Publics: 3418Registration: 02-02-2019
Spread the Download

Leave a Reply

Your email address will not be published. Required fields are marked *

Enter the text from the image below
 

This site uses Akismet to reduce spam. Learn how your comment data is processed.