Running Wild – Best Of Adrian




[Total: 0    Average: 0/5]

Artist: Running Wild
Year: 2006
Genre: Metal
Notes: Discogs
Add. Notes:
Cover incl.: Yes
Encoder: FLAC
Bitrate: ~1100 kBit/s (44.1 kHz/16 Bit/s)
Log & Cue incl.: Yes
Size: 635 MB
Password: “slam” (without ” “)


All Downloads/Hosters are compatible

Download 1
Share-online.biz
KatFile.com
Rapidgator.net
Mexa.sh
Download 2
Share-online.biz
KatFile.com
Rapidgator.net
Mexa.sh

Tracklist:

1 - The Rivalry - 5:34
2 - Draw The Line - 4:11
3 - Detonator - 3:49
4 - Firebreather - 4:04
5 - Kiss Of Death - 3:36
6 - Ballad Of William Kidd - 8:43
7 - Victory - 4:49
8 - Tsar - 7:07
9 - Welcome To Hell - 4:33
10 - The Brotherhood - 6:46
11 - Pirate Song - 3:14
12 - Rogues En Vogue - 4:45
13 - Bad To The Bone (Live) - 4:59
14 - Welcome To Hell (Live) - 4:38
15 - Under Jolly Roger (Live) - 4:41

EAC-Log, CUE-Sheed & NFO:

Click to open spoiler
Exact Audio Copy V1.0 beta 3 from 29. August 2011

EAC extraction logfile from 1. March 2013, 19:55

Running Wild / Best Of Adrian [EU, GUN 259 (BMG 88697 03146 2)]

Used drive : HL-DT-STDVDRAM GSA-T50F Adapter: 0 ID: 2

Read mode : Secure
Utilize accurate stream : Yes
Defeat audio cache : Yes
Make use of C2 pointers : No

Read offset correction : 667
Overread into Lead-In and Lead-Out : No
Fill up missing offset samples with silence : Yes
Delete leading and trailing silent blocks : No
Null samples used in CRC calculations : Yes
Used interface : Installed external ASPI interface

Used output format : Internal WAV Routines
Sample format : 44.100 Hz; 16 Bit; Stereo

TOC of the extracted CD

Track | Start | Length | Start sector | End sector
———————————————————
1 | 0:00.04 | 5:36.47 | 4 | 25250
2 | 5:36.51 | 4:14.44 | 25251 | 44344
3 | 9:51.20 | 3:52.32 | 44345 | 61776
4 | 13:43.52 | 4:07.22 | 61777 | 80323
5 | 17:50.74 | 3:39.53 | 80324 | 96801
6 | 21:30.52 | 8:46.34 | 96802 | 136285
7 | 30:17.11 | 4:51.38 | 136286 | 158148
8 | 35:08.49 | 7:09.08 | 158149 | 190331
9 | 42:17.57 | 4:37.12 | 190332 | 211118
10 | 46:54.69 | 6:50.29 | 211119 | 241897
11 | 53:45.23 | 3:16.72 | 241898 | 256669
12 | 57:02.20 | 4:48.27 | 256670 | 278296
13 | 61:50.47 | 5:01.20 | 278297 | 300891
14 | 66:51.67 | 4:38.72 | 300892 | 321813
15 | 71:30.64 | 4:41.64 | 321814 | 342952

Range status and errors

Selected range

Filename D:\Rip by Ballcrusher\Running Wild – Best Of Adrian [EU, GUN 259 (BMG 88697 03146 2)].wav

Peak level 100.0 %
Extraction speed 4.4 X
Range quality 100.0 %
Test CRC AC19D571
Copy CRC AC19D571
Copy OK

No errors occurred

AccurateRip summary

Track 1 not present in database
Track 2 not present in database
Track 3 not present in database
Track 4 not present in database
Track 5 not present in database
Track 6 not present in database
Track 7 not present in database
Track 8 not present in database
Track 9 not present in database
Track 10 not present in database
Track 11 not present in database
Track 12 not present in database
Track 13 not present in database
Track 14 not present in database
Track 15 not present in database

None of the tracks are present in the AccurateRip database

End of status report

==== Log checksum 54D75C0F885711121BD79F744D045D3D67B4EE214961990D30EFDF41CE36D05B ====

REM DATE 2006
REM DISCID C411DC0F
REM COMMENT “ExactAudioCopy v1.0b3”
PERFORMER “Running Wild”
TITLE “Best Of Adrian [EU, GUN 259 (BMG 88697 03146 2)]”
FILE “Running Wild – Best Of Adrian [EU, GUN 259 (BMG 88697 03146 2)].flac” WAVE
TRACK 01 AUDIO
TITLE “The Rivalry”
PERFORMER “Running Wild”
FLAGS DCP
INDEX 00 00:00:00
INDEX 01 00:00:04
TRACK 02 AUDIO
TITLE “Draw The Line”
PERFORMER “Running Wild”
FLAGS DCP
INDEX 00 05:35:39
INDEX 01 05:36:51
TRACK 03 AUDIO
TITLE “Detonator”
PERFORMER “Running Wild”
FLAGS DCP
INDEX 00 09:49:07
INDEX 01 09:51:20
TRACK 04 AUDIO
TITLE “Firebreather”
PERFORMER “Running Wild”
FLAGS DCP
INDEX 00 13:42:21
INDEX 01 13:43:52
TRACK 05 AUDIO
TITLE “Kiss Of Death”
PERFORMER “Running Wild”
FLAGS DCP
INDEX 00 17:48:36
INDEX 01 17:50:74
TRACK 06 AUDIO
TITLE “Ballad Of William Kidd”
PERFORMER “Running Wild”
FLAGS DCP
INDEX 00 21:28:27
INDEX 01 21:30:52
TRACK 07 AUDIO
TITLE “Victory”
PERFORMER “Running Wild”
FLAGS DCP
INDEX 00 30:15:25
INDEX 01 30:17:11
TRACK 08 AUDIO
TITLE “Tsar”
PERFORMER “Running Wild”
FLAGS DCP
INDEX 00 35:06:59
INDEX 01 35:08:49
TRACK 09 AUDIO
TITLE “Welcome To Hell”
PERFORMER “Running Wild”
FLAGS DCP
INDEX 00 42:15:67
INDEX 01 42:17:57
TRACK 10 AUDIO
TITLE “The Brotherhood”
PERFORMER “Running Wild”
FLAGS DCP
INDEX 00 46:53:23
INDEX 01 46:54:69
TRACK 11 AUDIO
TITLE “Pirate Song”
PERFORMER “Running Wild”
FLAGS DCP
INDEX 00 53:43:28
INDEX 01 53:45:23
TRACK 12 AUDIO
TITLE “Rogues En Vogue”
PERFORMER “Running Wild”
FLAGS DCP
INDEX 00 57:00:30
INDEX 01 57:02:20
TRACK 13 AUDIO
TITLE “Bad To The Bone (Live)”
PERFORMER “Running Wild”
FLAGS DCP
INDEX 00 61:48:57
INDEX 01 61:50:47
TRACK 14 AUDIO
TITLE “Welcome To Hell (Live)”
PERFORMER “Running Wild”
FLAGS DCP
INDEX 00 66:50:02
INDEX 01 66:51:67
TRACK 15 AUDIO
TITLE “Under Jolly Roger (Live)”
PERFORMER “Running Wild”
FLAGS DCP
INDEX 00 71:28:74
INDEX 01 71:30:64


Spread the Download

Leave a Reply

Your email address will not be published. Required fields are marked *

Enter the text from the image below
 

This site uses Akismet to reduce spam. Learn how your comment data is processed.