Running Wild – 20 Years In History (Promo)




Artist: Running Wild
Year: 2003
Genre: Metal
Notes: Discogs
Add. Notes: Promo
Cover incl.: Yes
Encoder: FLAC
Bitrate: ~1100 kBit/s (44.1 kHz/16 Bit/s)
Log & Cue incl.: Yes
Size: 1224 MB
Password: “slam” (without ” “)


All Downloads/Hosters are compatible

Download 1
KatFile.com
Rapidgator.net
Turbobit.net
FileFactory.com
Download 2
KatFile.com
Rapidgator.net
Turbobit.net
FileFactory.com

Tracklist:

1-01 - Prowling Werewolf - 4:13
1-02 - Genghis Khan - 4:10
1-03 - Prisoners Of Our Time - 5:23
1-04 - Branded And Exiled - 3:58
1-05 - Mordor '03 - 4:41
1-06 - Under Jolly Roger - 4:44
1-07 - Apocalyptic Horsemen - 4:38
1-08 - Raise Your Fist - 5:31
1-09 - Port Royal - 4:14
1-10 - Conquistadores - 4:48
1-11 - Riding The Storm - 6:30
1-12 - Bad To The Bone - 4:48
1-13 - Blazon Stone - 6:32
1-14 - Little Big Horn - 4:58

2-01 - Whirlwind - 4:55
2-02 - Treasure Island - 11:15
2-03 - Black Hand Inn - 4:33
2-04 - The Privateer - 4:22
2-05 - Lions Of The Sea - 5:50
2-06 - Black Soul - 5:21
2-07 - Firebreather - 4:04
2-08 - Ballad Of William Kidd - 8:42
2-09 - Victory - 4:49
2-10 - Tsar - 7:08
2-11 - Welcome To Hell - 4:35
2-12 - The Brotherhood - 6:46

EAC-Log, CUE-Sheed & NFO:

Click to open spoiler
Exact Audio Copy V1.0 beta 3 from 29. August 2011

EAC extraction logfile from 1. March 2013, 18:39

Running Wild / 20 Years In History [CD1] [UK, Noise-Sanctuary, N03752] [Promo]

Used drive : HL-DT-STDVDRAM GSA-T50F Adapter: 0 ID: 2

Read mode : Secure
Utilize accurate stream : Yes
Defeat audio cache : Yes
Make use of C2 pointers : No

Read offset correction : 667
Overread into Lead-In and Lead-Out : No
Fill up missing offset samples with silence : Yes
Delete leading and trailing silent blocks : No
Null samples used in CRC calculations : Yes
Used interface : Installed external ASPI interface

Used output format : Internal WAV Routines
Sample format : 44.100 Hz; 16 Bit; Stereo

TOC of the extracted CD

Track | Start | Length | Start sector | End sector
———————————————————
1 | 0:00.00 | 4:13.04 | 0 | 18978
2 | 4:13.04 | 4:10.17 | 18979 | 37745
3 | 8:23.21 | 5:23.60 | 37746 | 62030
4 | 13:47.06 | 3:58.68 | 62031 | 79948
5 | 17:45.74 | 4:41.16 | 79949 | 101039
6 | 22:27.15 | 4:44.08 | 101040 | 122347
7 | 27:11.23 | 4:38.52 | 122348 | 143249
8 | 31:50.00 | 5:31.05 | 143250 | 168079
9 | 37:21.05 | 4:14.72 | 168080 | 187201
10 | 41:36.02 | 4:48.35 | 187202 | 208836
11 | 46:24.37 | 6:30.09 | 208837 | 238095
12 | 52:54.46 | 4:48.04 | 238096 | 259699
13 | 57:42.50 | 6:32.14 | 259700 | 289113
14 | 64:14.64 | 4:58.13 | 289114 | 311476

Range status and errors

Selected range

Filename D:\Rip by Ballcrusher\Running Wild – 20 Years In History [CD1] [UK, Noise-Sanctuary, N03752] [Promo].wav

Peak level 98.8 %
Extraction speed 4.3 X
Range quality 99.9 %
Test CRC 99BBE4DF
Copy CRC 99BBE4DF
Copy OK

No errors occurred

AccurateRip summary

Track 1 accurately ripped (confidence 2) [C1789441] (AR v2)
Track 2 accurately ripped (confidence 2) [29AD1A50] (AR v2)
Track 3 accurately ripped (confidence 2) [A23B1773] (AR v2)
Track 4 accurately ripped (confidence 2) [DE6BF051] (AR v2)
Track 5 accurately ripped (confidence 2) [21C291B5] (AR v2)
Track 6 accurately ripped (confidence 2) [FFC942E6] (AR v2)
Track 7 accurately ripped (confidence 2) [D29EFEC7] (AR v2)
Track 8 accurately ripped (confidence 2) [625795E0] (AR v2)
Track 9 accurately ripped (confidence 2) [84591674] (AR v2)
Track 10 accurately ripped (confidence 2) [CE24EC88] (AR v2)
Track 11 accurately ripped (confidence 2) [862A9C04] (AR v2)
Track 12 accurately ripped (confidence 2) [C3713272] (AR v2)
Track 13 accurately ripped (confidence 2) [20CE2489] (AR v2)
Track 14 accurately ripped (confidence 2) [FC6B2ABA] (AR v2)

All tracks accurately ripped

End of status report

==== Log checksum AED873986736555077C5104A70C6AB874F1205E735214A9DF67B7E377D806C38 ====

Exact Audio Copy V1.0 beta 3 from 29. August 2011

EAC extraction logfile from 1. March 2013, 19:17

Running Wild / 20 Years In History [CD2] [UK, Noise-Sanctuary, N03752] [Promo]

Used drive : HL-DT-STDVDRAM GSA-T50F Adapter: 0 ID: 2

Read mode : Secure
Utilize accurate stream : Yes
Defeat audio cache : Yes
Make use of C2 pointers : No

Read offset correction : 667
Overread into Lead-In and Lead-Out : No
Fill up missing offset samples with silence : Yes
Delete leading and trailing silent blocks : No
Null samples used in CRC calculations : Yes
Used interface : Installed external ASPI interface

Used output format : Internal WAV Routines
Sample format : 44.100 Hz; 16 Bit; Stereo

TOC of the extracted CD

Track | Start | Length | Start sector | End sector
———————————————————
1 | 0:00.00 | 4:55.24 | 0 | 22148
2 | 4:55.24 | 11:15.41 | 22149 | 72814
3 | 16:10.65 | 4:33.04 | 72815 | 93293
4 | 20:43.69 | 4:22.19 | 93294 | 112962
5 | 25:06.13 | 5:50.53 | 112963 | 139265
6 | 30:56.66 | 5:21.10 | 139266 | 163350
7 | 36:18.01 | 4:04.01 | 163351 | 181651
8 | 40:22.02 | 8:42.70 | 181652 | 220871
9 | 49:04.72 | 4:49.52 | 220872 | 242598
10 | 53:54.49 | 7:08.42 | 242599 | 274740
11 | 61:03.16 | 4:35.19 | 274741 | 295384
12 | 65:38.35 | 6:46.70 | 295385 | 325904

Range status and errors

Selected range

Filename D:\Rip by Ballcrusher\Running Wild – 20 Years In History [CD2] [UK, Noise-Sanctuary, N03752] [Promo].wav

Peak level 98.8 %
Extraction speed 4.3 X
Range quality 100.0 %
Test CRC 0A98A69A
Copy CRC 0A98A69A
Copy OK

No errors occurred

AccurateRip summary

Track 1 accurately ripped (confidence 2) [81D36882] (AR v2)
Track 2 accurately ripped (confidence 2) [D46DDF1A] (AR v2)
Track 3 accurately ripped (confidence 2) [1A949691] (AR v2)
Track 4 accurately ripped (confidence 2) [D3A99DA2] (AR v2)
Track 5 accurately ripped (confidence 2) [47170C24] (AR v2)
Track 6 accurately ripped (confidence 2) [6D142D82] (AR v2)
Track 7 accurately ripped (confidence 2) [76BAF6F7] (AR v2)
Track 8 accurately ripped (confidence 2) [DA83BB1C] (AR v2)
Track 9 accurately ripped (confidence 2) [2DECC090] (AR v2)
Track 10 accurately ripped (confidence 2) [0D058BC9] (AR v2)
Track 11 accurately ripped (confidence 2) [36B7810E] (AR v2)
Track 12 accurately ripped (confidence 2) [C11122D6] (AR v2)

All tracks accurately ripped

End of status report

==== Log checksum DDED9F43BC8D96F3C88EF155BD4689408A7F941516EE2AAA8BEDD83126945097 ====

REM DATE 2003
REM DISCID D510390E
REM COMMENT “ExactAudioCopy v1.0b3”
PERFORMER “Running Wild”
TITLE “20 Years In History [CD1] [UK, Noise-Sanctuary, N03752] [Promo]”
FILE “Running Wild – 20 Years In History [CD1] [UK, Noise-Sanctuary, N03752] [Promo].flac” WAVE
TRACK 01 AUDIO
TITLE “Prowling Werewolf”
PERFORMER “Running Wild”
INDEX 01 00:00:00
TRACK 02 AUDIO
TITLE “Genghis Khan”
PERFORMER “Running Wild”
INDEX 00 04:11:04
INDEX 01 04:13:04
TRACK 03 AUDIO
TITLE “Prisoners Of Our Time”
PERFORMER “Running Wild”
INDEX 00 08:21:21
INDEX 01 08:23:21
TRACK 04 AUDIO
TITLE “Branded & Exiled ’03”
PERFORMER “Running Wild”
INDEX 00 13:45:06
INDEX 01 13:47:06
TRACK 05 AUDIO
TITLE “Mordor ’03”
PERFORMER “Running Wild”
INDEX 00 17:43:74
INDEX 01 17:45:74
TRACK 06 AUDIO
TITLE “Under Jolly Roger”
PERFORMER “Running Wild”
INDEX 00 22:25:15
INDEX 01 22:27:15
TRACK 07 AUDIO
TITLE “Apocalyptic Horsemen”
PERFORMER “Running Wild”
INDEX 00 27:09:23
INDEX 01 27:11:23
TRACK 08 AUDIO
TITLE “Raise Your Fist”
PERFORMER “Running Wild”
INDEX 00 31:48:00
INDEX 01 31:50:00
TRACK 09 AUDIO
TITLE “Port Royal”
PERFORMER “Running Wild”
INDEX 00 37:19:05
INDEX 01 37:21:05
TRACK 10 AUDIO
TITLE “Conquistadores”
PERFORMER “Running Wild”
INDEX 00 41:34:02
INDEX 01 41:36:02
TRACK 11 AUDIO
TITLE “Riding The Storm”
PERFORMER “Running Wild”
INDEX 00 46:22:37
INDEX 01 46:24:37
TRACK 12 AUDIO
TITLE “Bad To The Bone”
PERFORMER “Running Wild”
INDEX 00 52:52:46
INDEX 01 52:54:46
TRACK 13 AUDIO
TITLE “Blazon Stone”
PERFORMER “Running Wild”
INDEX 00 57:40:50
INDEX 01 57:42:50
TRACK 14 AUDIO
TITLE “Little Big Horn”
PERFORMER “Running Wild”
INDEX 00 64:12:64
INDEX 01 64:14:64

REM DATE 2003
REM DISCID B410F90C
REM COMMENT “ExactAudioCopy v1.0b3”
PERFORMER “Running Wild”
TITLE “20 Years In History [CD2] [UK, Noise-Sanctuary, N03752] [Promo]”
FILE “Running Wild – 20 Years In History [CD2] [UK, Noise-Sanctuary, N03752] [Promo].flac” WAVE
TRACK 01 AUDIO
TITLE “Whirlwind”
PERFORMER “Running Wild”
INDEX 01 00:00:00
TRACK 02 AUDIO
TITLE “Treasure Island”
PERFORMER “Running Wild”
INDEX 00 04:53:24
INDEX 01 04:55:24
TRACK 03 AUDIO
TITLE “Black Hand Inn”
PERFORMER “Running Wild”
INDEX 00 16:08:65
INDEX 01 16:10:65
TRACK 04 AUDIO
TITLE “The Privateer”
PERFORMER “Running Wild”
INDEX 00 20:41:69
INDEX 01 20:43:69
TRACK 05 AUDIO
TITLE “Lions Of The Sea”
PERFORMER “Running Wild”
INDEX 00 25:04:13
INDEX 01 25:06:13
TRACK 06 AUDIO
TITLE “Black Soul”
PERFORMER “Running Wild”
INDEX 00 30:54:66
INDEX 01 30:56:66
TRACK 07 AUDIO
TITLE “Firebreather”
PERFORMER “Running Wild”
INDEX 00 36:16:01
INDEX 01 36:18:01
TRACK 08 AUDIO
TITLE “Ballad Of William Kidd”
PERFORMER “Running Wild”
INDEX 00 40:20:02
INDEX 01 40:22:02
TRACK 09 AUDIO
TITLE “Victory”
PERFORMER “Running Wild”
INDEX 00 49:02:72
INDEX 01 49:04:72
TRACK 10 AUDIO
TITLE “Tsar”
PERFORMER “Running Wild”
INDEX 00 53:52:49
INDEX 01 53:54:49
TRACK 11 AUDIO
TITLE “Welcome To Hell”
PERFORMER “Running Wild”
INDEX 00 61:01:16
INDEX 01 61:03:16
TRACK 12 AUDIO
TITLE “The Brotherhood”
PERFORMER “Running Wild”
INDEX 00 65:36:35
INDEX 01 65:38:35


Leave a Reply

Your email address will not be published. Required fields are marked *

Enter the text from the image below
 

This site uses Akismet to reduce spam. Learn how your comment data is processed.