Running Wild – 20 Years In History (Japanese Edition)




[Total: 0    Average: 0/5]

Artist: Running Wild
Year: 2003
Genre: Metal
Notes: Discogs
Add. Notes: Japanese Edition
Cover incl.: Yes
Encoder: FLAC
Bitrate: ~1100 kBit/s (44.1 kHz/16 Bit/s)
Log & Cue incl.: Yes
Size: 1367,24 MB
Password: “slam” (without ” “)


All Downloads/Hosters are compatible

Download 1
Share-online.biz
KatFile.com
Rapidgator.net
Turbobit.net
Download 2
Share-online.biz
KatFile.com
Rapidgator.net
Turbobit.net

Tracklist:

1-01 - Prowling Werewolf - 4:13
1-02 - Genghis Khan - 4:10
1-03 - Prisoners Of Our Time - 5:23
1-04 - Branded And Exiled - 3:58
1-05 - Mordor '03 - 4:41
1-06 - Under Jolly Roger - 4:44
1-07 - Apocalyptic Horsemen - 4:38
1-08 - Raise Your Fist - 5:31
1-09 - Port Royal - 4:14
1-10 - Conquistadores - 4:48
1-11 - Riding The Storm - 6:30
1-12 - Bad To The Bone - 4:48
1-13 - Blazon Stone - 6:32
1-14 - Little Big Horn - 4:58

2-01 - Whirlwind - 4:55
2-02 - Treasure Island - 11:15
2-03 - Black Hand Inn - 4:33
2-04 - The Privateer - 4:22
2-05 - Lions Of The Sea - 5:50
2-06 - Black Soul - 5:21
2-07 - Firebreather - 4:04
2-08 - Ballad Of William Kidd - 8:42
2-09 - Victory - 4:49
2-10 - Tsar - 7:08
2-11 - Welcome To Hell - 4:35
2-12 - The Brotherhood - 6:46

EAC-Log, CUE-Sheed & NFO:

Click to open spoiler
Exact Audio Copy V1.0 beta 3 from 29. August 2011

EAC extraction logfile from 1. March 2012, 20:24

Running Wild / 20 Years In History [CD 1] [Japan, King Record Co, KICP 982-3, 2004]

Used drive : HL-DT-STDVDRAM GSA-T50F Adapter: 0 ID: 2

Read mode : Secure
Utilize accurate stream : Yes
Defeat audio cache : Yes
Make use of C2 pointers : No

Read offset correction : 667
Overread into Lead-In and Lead-Out : No
Fill up missing offset samples with silence : Yes
Delete leading and trailing silent blocks : No
Null samples used in CRC calculations : Yes
Used interface : Installed external ASPI interface

Used output format : Internal WAV Routines
Sample format : 44.100 Hz; 16 Bit; Stereo

TOC of the extracted CD

Track | Start | Length | Start sector | End sector
———————————————————
1 | 0:00.00 | 4:13.12 | 0 | 18986
2 | 4:13.12 | 4:10.18 | 18987 | 37754
3 | 8:23.30 | 5:23.57 | 37755 | 62036
4 | 13:47.12 | 3:58.68 | 62037 | 79954
5 | 17:46.05 | 4:41.25 | 79955 | 101054
6 | 22:27.30 | 4:44.00 | 101055 | 122354
7 | 27:11.30 | 4:38.52 | 122355 | 143256
8 | 31:50.07 | 5:31.03 | 143257 | 168084
9 | 37:21.10 | 4:15.00 | 168085 | 187209
10 | 41:36.10 | 4:48.32 | 187210 | 208841
11 | 46:24.42 | 6:30.15 | 208842 | 238106
12 | 52:54.57 | 4:47.73 | 238107 | 259704
13 | 57:42.55 | 6:32.32 | 259705 | 289136
14 | 64:15.12 | 5:00.08 | 289137 | 311644

Range status and errors

Selected range

Filename D:\Rip by Ballcrusher\Running Wild – 20 Years In History [CD 1] [Japan, King Record Co, KICP 982-3, 2004].wav

Peak level 98.7 %
Extraction speed 4.3 X
Range quality 100.0 %
Test CRC 66668B5A
Copy CRC 66668B5A
Copy OK

No errors occurred

AccurateRip summary

Track 1 not present in database
Track 2 not present in database
Track 3 not present in database
Track 4 not present in database
Track 5 not present in database
Track 6 not present in database
Track 7 not present in database
Track 8 not present in database
Track 9 not present in database
Track 10 not present in database
Track 11 not present in database
Track 12 not present in database
Track 13 not present in database
Track 14 not present in database

None of the tracks are present in the AccurateRip database

End of status report

==== Log checksum C66C0C8E29962C2E6ED3D1616F18983174F232583EB88EFAEF85072A8B7C8374 ====

Exact Audio Copy V1.0 beta 3 from 29. August 2011

EAC extraction logfile from 1. March 2012, 21:02

Running Wild / 20 Years In History [CD 2] [Japan, King Record Co, KICP 982-3, 2004]

Used drive : HL-DT-STDVDRAM GSA-T50F Adapter: 0 ID: 2

Read mode : Secure
Utilize accurate stream : Yes
Defeat audio cache : Yes
Make use of C2 pointers : No

Read offset correction : 667
Overread into Lead-In and Lead-Out : No
Fill up missing offset samples with silence : Yes
Delete leading and trailing silent blocks : No
Null samples used in CRC calculations : Yes
Used interface : Installed external ASPI interface

Used output format : Internal WAV Routines
Sample format : 44.100 Hz; 16 Bit; Stereo

TOC of the extracted CD

Track | Start | Length | Start sector | End sector
———————————————————
1 | 0:00.00 | 4:55.35 | 0 | 22159
2 | 4:55.35 | 11:15.40 | 22160 | 72824
3 | 16:11.00 | 4:33.02 | 72825 | 93301
4 | 20:44.02 | 4:22.20 | 93302 | 112971
5 | 25:06.22 | 5:50.60 | 112972 | 139281
6 | 30:57.07 | 5:21.03 | 139282 | 163359
7 | 36:18.10 | 4:04.05 | 163360 | 181664
8 | 40:22.15 | 8:42.67 | 181665 | 220881
9 | 49:05.07 | 4:49.50 | 220882 | 242606
10 | 53:54.57 | 7:08.48 | 242607 | 274754
11 | 61:03.30 | 4:35.10 | 274755 | 295389
12 | 65:38.40 | 6:48.67 | 295390 | 326056

Range status and errors

Selected range

Filename D:\Rip by Ballcrusher\Running Wild – 20 Years In History [CD 2] [Japan, King Record Co, KICP 982-3, 2004].wav

Peak level 98.7 %
Extraction speed 4.3 X
Range quality 100.0 %
Test CRC 83C8962B
Copy CRC 83C8962B
Copy OK

No errors occurred

AccurateRip summary

Track 1 not present in database
Track 2 not present in database
Track 3 not present in database
Track 4 not present in database
Track 5 not present in database
Track 6 not present in database
Track 7 not present in database
Track 8 not present in database
Track 9 not present in database
Track 10 not present in database
Track 11 not present in database
Track 12 not present in database

None of the tracks are present in the AccurateRip database

End of status report

==== Log checksum 61B481CF37C347446839B55F6FAB6D059F9F6AE41E36A9F04C9684816758AA40 ====

REM DATE 2003
REM DISCID D7103B0E
REM COMMENT “ExactAudioCopy v1.0b3”
PERFORMER “Running Wild”
TITLE “20 Years In History [CD 1] [Japan, King Record Co, KICP 982-3, 2004]”
FILE “Running Wild – 20 Years In History [CD 1] [Japan, King Record Co, KICP 982-3, 2004].flac” WAVE
TRACK 01 AUDIO
TITLE “Prowling Werewolf”
PERFORMER “Running Wild”
INDEX 01 00:00:00
TRACK 02 AUDIO
TITLE “Genghis Khan”
PERFORMER “Running Wild”
INDEX 00 04:12:12
INDEX 01 04:13:12
TRACK 03 AUDIO
TITLE “Prisoners Of Our Time”
PERFORMER “Running Wild”
INDEX 00 08:21:30
INDEX 01 08:23:30
TRACK 04 AUDIO
TITLE “Branded & Exiled ’03”
PERFORMER “Running Wild”
INDEX 00 13:46:12
INDEX 01 13:47:12
TRACK 05 AUDIO
TITLE “Mordor ’03”
PERFORMER “Running Wild”
INDEX 00 17:45:05
INDEX 01 17:46:05
TRACK 06 AUDIO
TITLE “Under Jolly Roger”
PERFORMER “Running Wild”
INDEX 00 22:25:30
INDEX 01 22:27:30
TRACK 07 AUDIO
TITLE “Apocalyptic Horsemen”
PERFORMER “Running Wild”
INDEX 00 27:10:30
INDEX 01 27:11:30
TRACK 08 AUDIO
TITLE “Raise Your Fist”
PERFORMER “Running Wild”
INDEX 00 31:49:07
INDEX 01 31:50:07
TRACK 09 AUDIO
TITLE “Port Royal”
PERFORMER “Running Wild”
INDEX 00 37:20:10
INDEX 01 37:21:10
TRACK 10 AUDIO
TITLE “Conquistadores”
PERFORMER “Running Wild”
INDEX 00 41:34:10
INDEX 01 41:36:10
TRACK 11 AUDIO
TITLE “Riding The Storm”
PERFORMER “Running Wild”
INDEX 00 46:23:42
INDEX 01 46:24:42
TRACK 12 AUDIO
TITLE “Bad To The Bone”
PERFORMER “Running Wild”
INDEX 00 52:52:57
INDEX 01 52:54:57
TRACK 13 AUDIO
TITLE “Blazon Stone”
PERFORMER “Running Wild”
INDEX 00 57:41:55
INDEX 01 57:42:55
TRACK 14 AUDIO
TITLE “Little Big Horn”
PERFORMER “Running Wild”
INDEX 00 64:14:12
INDEX 01 64:15:12

REM DATE 2003
REM DISCID B810FB0C
REM COMMENT “ExactAudioCopy v1.0b3”
PERFORMER “Running Wild”
TITLE “20 Years In History [CD 2] [Japan, King Record Co, KICP 982-3, 2004]”
FILE “Running Wild – 20 Years In History [CD 2] [Japan, King Record Co, KICP 982-3, 2004].flac” WAVE
TRACK 01 AUDIO
TITLE “Whirlwind”
PERFORMER “Running Wild”
INDEX 01 00:00:00
TRACK 02 AUDIO
TITLE “Treasure Island”
PERFORMER “Running Wild”
INDEX 00 04:53:35
INDEX 01 04:55:35
TRACK 03 AUDIO
TITLE “Black Hand Inn”
PERFORMER “Running Wild”
INDEX 00 16:10:00
INDEX 01 16:11:00
TRACK 04 AUDIO
TITLE “The Privateer”
PERFORMER “Running Wild”
INDEX 00 20:43:02
INDEX 01 20:44:02
TRACK 05 AUDIO
TITLE “Lions Of The Sea”
PERFORMER “Running Wild”
INDEX 00 25:05:22
INDEX 01 25:06:22
TRACK 06 AUDIO
TITLE “Black Soul”
PERFORMER “Running Wild”
INDEX 00 30:56:07
INDEX 01 30:57:07
TRACK 07 AUDIO
TITLE “Firebreather”
PERFORMER “Running Wild”
INDEX 00 36:16:10
INDEX 01 36:18:10
TRACK 08 AUDIO
TITLE “Ballad Of William Kidd”
PERFORMER “Running Wild”
INDEX 00 40:21:15
INDEX 01 40:22:15
TRACK 09 AUDIO
TITLE “Victory”
PERFORMER “Running Wild”
INDEX 00 49:04:07
INDEX 01 49:05:07
TRACK 10 AUDIO
TITLE “Tsar”
PERFORMER “Running Wild”
INDEX 00 53:53:57
INDEX 01 53:54:57
TRACK 11 AUDIO
TITLE “Welcome To Hell”
PERFORMER “Running Wild”
INDEX 00 61:02:30
INDEX 01 61:03:30
TRACK 12 AUDIO
TITLE “The Brotherhood”
PERFORMER “Running Wild”
INDEX 00 65:37:40
INDEX 01 65:38:40


Spread the Download

Leave a Reply

Your email address will not be published. Required fields are marked *

Enter the text from the image below
 

This site uses Akismet to reduce spam. Learn how your comment data is processed.