Ronnie James Dio – The Ronnie James Dio Story: Mightier Than The Sword (Remastered)




[Total: 0    Average: 0/5]

Artist: Ronnie James Dio
Year: 2011
Genre: Metal
Notes: Discogs
Add. Notes: Remastered
Cover incl.: Yes
Encoder: FLAC
Bitrate: ~900 kBit/s (44.1 kHz/16 Bit/s)
Log & Cue incl.: Yes
Size: 992,68 MB
Password: “slam” (without ” “)


All Downloads/Hosters are compatible

Download 1
Share-online.biz
KatFile.com
Rapidgator.net
NitroFlare.com
Download 2
Share-online.biz
KatFile.com
Rapidgator.net
NitroFlare.com

Tracklist:

1-1. Elf (3) - Carolina County Ball - 4:47
1-2. Roger Glover & Friends* - Love Is All - 3:19
1-3. Rainbow - The Temple Of The King - 4:43
1-4. Rainbow - Catch The Rainbow - 6:38
1-5. Rainbow - Stargazer - 8:28
1-6. Rainbow - Run With The Wolf - 3:41
1-7. Rainbow - Kill The King (Live) - 5:31
1-8. Rainbow - Long Live Rock 'N' Roll - 4:21
1-9. Rainbow - Lady Of The Lake - 3:38
1-10. Rainbow - Gates Of Babylon - 6:48
1-11. Black Sabbath - Die Young - 4:44
1-12. Black Sabbath - Heaven And Hell - 6:56
1-13. Black Sabbath - Children Of The Sea - 5:35

2-1. Black Sabbath - The Mob Rules - 3:14
2-2. Black Sabbath - Voodoo - 4:34
2-3. Black Sabbath - Country Girl - 4:04
2-4. Dio (2) - Holy Diver - 5:53
2-5. Dio (2) - Rainbow In The Dark - 4:16
2-6. Dio (2) - We Rock - 4:35
2-7. Dio (2) - Rock 'N' Roll Children - 4:34
2-8. Dio (2) - All The Fools Sailed Away - 7:13
2-9. Black Sabbath - I - 5:12
2-10. Dio (2) - Push - 4:09
2-11. Dio (2) - One More For The Road - 3:19
2-12. Black Sabbath - Shadow Of The Wind - 5:40
2-13. Heaven & Hell (2) - Neon Knights (Live) - 7:51
2-14. Heaven & Hell (2) - Bible Black - 6:28

EAC-Log, CUE-Sheed & NFO:

Click to open spoiler
Exact Audio Copy V1.0 beta 3 from 29. August 2011

EAC extraction logfile from 4. February 2013, 20:14

Ronnie James Dio / The Ronnie James Dio Story: Mightier Than The Sword (Disc One 5333308)

Used drive : TEAC DV-W28EA Adapter: 0 ID: 1

Read mode : Secure
Utilize accurate stream : Yes
Defeat audio cache : Yes
Make use of C2 pointers : No

Read offset correction : 102
Overread into Lead-In and Lead-Out : No
Fill up missing offset samples with silence : Yes
Delete leading and trailing silent blocks : No
Null samples used in CRC calculations : Yes
Used interface : Native Win32 interface for Win NT & 2000

Used output format : Internal WAV Routines
Sample format : 44.100 Hz; 16 Bit; Stereo

TOC of the extracted CD

Track | Start | Length | Start sector | End sector
———————————————————
1 | 0:00.00 | 4:47.70 | 0 | 21594
2 | 4:47.70 | 3:19.05 | 21595 | 36524
3 | 8:07.00 | 4:43.54 | 36525 | 57803
4 | 12:50.54 | 6:38.60 | 57804 | 87713
5 | 19:29.39 | 8:28.29 | 87714 | 125842
6 | 27:57.68 | 3:41.50 | 125843 | 142467
7 | 31:39.43 | 5:31.02 | 142468 | 167294
8 | 37:10.45 | 4:21.69 | 167295 | 186938
9 | 41:32.39 | 3:38.47 | 186939 | 203335
10 | 45:11.11 | 6:48.26 | 203336 | 233961
11 | 51:59.37 | 4:44.01 | 233962 | 255262
12 | 56:43.38 | 6:56.50 | 255263 | 286512
13 | 63:40.13 | 5:35.16 | 286513 | 311653

Range status and errors

Selected range

Filename F:\bigggwest\Ronnie James Dio – The Ronnie James Dio Story- Mightier Than The Sword (Disc One 5333308).wav

Peak level 97.0 %
Extraction speed 4.0 X
Range quality 100.0 %
Test CRC 63BC861E
Copy CRC 63BC861E
Copy OK

No errors occurred

AccurateRip summary

Track 1 accurately ripped (confidence 2) [31F8130F] (AR v2)
Track 2 accurately ripped (confidence 2) [B244C4BB] (AR v2)
Track 3 accurately ripped (confidence 2) [41E22A33] (AR v2)
Track 4 accurately ripped (confidence 2) [F48A96C2] (AR v2)
Track 5 accurately ripped (confidence 2) [FFA288C8] (AR v2)
Track 6 accurately ripped (confidence 2) [DB00C078] (AR v2)
Track 7 accurately ripped (confidence 2) [F94480EA] (AR v2)
Track 8 accurately ripped (confidence 2) [94259660] (AR v2)
Track 9 accurately ripped (confidence 2) [2870B088] (AR v2)
Track 10 accurately ripped (confidence 2) [6C7CA522] (AR v2)
Track 11 accurately ripped (confidence 2) [2E906583] (AR v2)
Track 12 accurately ripped (confidence 2) [EE1D712A] (AR v2)
Track 13 accurately ripped (confidence 2) [41C5918D] (AR v2)

All tracks accurately ripped

End of status report

==== Log checksum 510D2B55C83704912EC148ECC5561FDF0786FF89505F677803BEA7816FF05070 ====

Exact Audio Copy V1.0 beta 3 from 29. August 2011

EAC extraction logfile from 4. February 2013, 20:52

Ronnie James Dio / The Ronnie James Dio Story: Mightier Than The Sword (Disc Two 5333308)

Used drive : TEAC DV-W28EA Adapter: 0 ID: 1

Read mode : Secure
Utilize accurate stream : Yes
Defeat audio cache : Yes
Make use of C2 pointers : No

Read offset correction : 102
Overread into Lead-In and Lead-Out : No
Fill up missing offset samples with silence : Yes
Delete leading and trailing silent blocks : No
Null samples used in CRC calculations : Yes
Used interface : Native Win32 interface for Win NT & 2000

Used output format : Internal WAV Routines
Sample format : 44.100 Hz; 16 Bit; Stereo

TOC of the extracted CD

Track | Start | Length | Start sector | End sector
———————————————————
1 | 0:00.00 | 3:14.35 | 0 | 14584
2 | 3:14.35 | 4:34.23 | 14585 | 35157
3 | 7:48.58 | 4:04.63 | 35158 | 53520
4 | 11:53.46 | 5:53.55 | 53521 | 80050
5 | 17:47.26 | 4:16.24 | 80051 | 99274
6 | 22:03.50 | 4:35.54 | 99275 | 119953
7 | 26:39.29 | 4:34.26 | 119954 | 140529
8 | 31:13.55 | 7:13.47 | 140530 | 173051
9 | 38:27.27 | 5:12.31 | 173052 | 196482
10 | 43:39.58 | 4:09.09 | 196483 | 215166
11 | 47:48.67 | 3:19.31 | 215167 | 230122
12 | 51:08.23 | 5:40.35 | 230123 | 255657
13 | 56:48.58 | 7:51.33 | 255658 | 291015
14 | 64:40.16 | 6:28.34 | 291016 | 320149

Range status and errors

Selected range

Filename F:\bigggwest\Ronnie James Dio – The Ronnie James Dio Story- Mightier Than The Sword (Disc Two 5333308).wav

Peak level 97.0 %
Extraction speed 4.1 X
Range quality 100.0 %
Test CRC DF5235F6
Copy CRC DF5235F6
Copy OK

No errors occurred

AccurateRip summary

Track 1 accurately ripped (confidence 2) [7A8FA477] (AR v2)
Track 2 accurately ripped (confidence 2) [27099C42] (AR v2)
Track 3 accurately ripped (confidence 2) [775073AF] (AR v2)
Track 4 accurately ripped (confidence 2) [F1619D11] (AR v2)
Track 5 accurately ripped (confidence 2) [7A7D69DC] (AR v2)
Track 6 accurately ripped (confidence 2) [477A3CB4] (AR v2)
Track 7 accurately ripped (confidence 2) [90C5DA2F] (AR v2)
Track 8 accurately ripped (confidence 2) [FABF29B2] (AR v2)
Track 9 accurately ripped (confidence 2) [7EEA9B07] (AR v2)
Track 10 accurately ripped (confidence 2) [BAC7FB52] (AR v2)
Track 11 accurately ripped (confidence 2) [FB1B827D] (AR v2)
Track 12 accurately ripped (confidence 2) [82AF8D98] (AR v2)
Track 13 accurately ripped (confidence 2) [D3A361C3] (AR v2)
Track 14 accurately ripped (confidence 2) [23871F79] (AR v2)

All tracks accurately ripped

End of status report

==== Log checksum 28F49D41C35CB9B8C6AA9230F61C1240070A77607D5121BC80BF10289AF64131 ====

REM GENRE “Heavy Metal”
REM DATE 2011
REM DISCID B1103B0D
REM COMMENT “ExactAudioCopy v1.0b3”
CATALOG 0600753333099
PERFORMER “Ronnie James Dio”
TITLE “The Ronnie James Dio Story: Mightier Than The Sword (Disc One 5333308)”
FILE “Ronnie James Dio – The Ronnie James Dio Story- Mightier Than The Sword (Disc One 5333308).flac” WAVE
TRACK 01 AUDIO
TITLE “Carolina County Ball”
PERFORMER “Ronnie James Dio”
ISRC UY>M71017367
INDEX 01 00:00:00
TRACK 02 AUDIO
TITLE “Love Is All”
PERFORMER “Ronnie James Dio”
ISRC GE9KB7426519
INDEX 00 04:46:12
INDEX 01 04:47:70
TRACK 03 AUDIO
TITLE “The Temple Of The King”
PERFORMER “Ronnie James Dio”
ISRC UY>R37587054
INDEX 00 08:05:17
INDEX 01 08:07:00
TRACK 04 AUDIO
TITLE “Catch The Rainbow”
PERFORMER “Ronnie James Dio”
ISRC UY>R37580076
INDEX 00 12:48:71
INDEX 01 12:50:54
TRACK 05 AUDIO
TITLE “Stargazer”
PERFORMER “Ronnie James Dio”
ISRC UY>R37680077
INDEX 00 19:27:08
INDEX 01 19:29:39
TRACK 06 AUDIO
TITLE “Run With The Wolf”
PERFORMER “Ronnie James Dio”
ISRC UY>R37689217
INDEX 00 27:55:29
INDEX 01 27:57:68
TRACK 07 AUDIO
TITLE “Kill The King”
PERFORMER “Ronnie James Dio”
ISRC UY>R37789216
INDEX 00 31:37:60
INDEX 01 31:39:43
TRACK 08 AUDIO
TITLE “Long Live Rock ‘n’ Roll”
PERFORMER “Ronnie James Dio”
ISRC UY>R37880079
INDEX 00 37:08:56
INDEX 01 37:10:45
TRACK 09 AUDIO
TITLE “Lady Of The Lake”
PERFORMER “Ronnie James Dio”
ISRC UY>R37870004
INDEX 00 41:30:18
INDEX 01 41:32:39
TRACK 10 AUDIO
TITLE “Gates Of Babylon”
PERFORMER “Ronnie James Dio”
ISRC UY>R37880080
INDEX 00 45:09:12
INDEX 01 45:11:11
TRACK 11 AUDIO
TITLE “Die Young”
PERFORMER “Ronnie James Dio”
ISRC GE:M70900391
INDEX 00 51:57:27
INDEX 01 51:59:37
TRACK 12 AUDIO
TITLE “Heaven And Hell”
PERFORMER “Ronnie James Dio”
ISRC GE9JE0502694
INDEX 00 56:41:55
INDEX 01 56:43:38
TRACK 13 AUDIO
TITLE “Children Of The Sea”
PERFORMER “Ronnie James Dio”
ISRC GE:M70900390
INDEX 00 63:39:30
INDEX 01 63:40:13

REM GENRE “Heavy Metal”
REM DATE 2011
REM DISCID B310AC0E
REM COMMENT “ExactAudioCopy v1.0b3”
CATALOG 0600753333105
PERFORMER “Ronnie James Dio”
TITLE “The Ronnie James Dio Story: Mightier Than The Sword (Disc Two 5333308)”
FILE “Ronnie James Dio – The Ronnie James Dio Story- Mightier Than The Sword (Disc Two 5333308).flac” WAVE
TRACK 01 AUDIO
TITLE “The Mob Rules”
PERFORMER “Ronnie James Dio”
ISRC GE:M70900389
INDEX 01 00:00:00
TRACK 02 AUDIO
TITLE “Voodoo”
PERFORMER “Ronnie James Dio”
ISRC GE:M70900382
INDEX 00 03:12:37
INDEX 01 03:14:35
TRACK 03 AUDIO
TITLE “Country Girl (with Black Sabbath)”
PERFORMER “Ronnie James Dio”
ISRC GE:M70900385
INDEX 00 07:46:66
INDEX 01 07:48:58
TRACK 04 AUDIO
TITLE “Holy Diver”
PERFORMER “Ronnie James Dio”
ISRC NGa050390016
INDEX 00 11:51:51
INDEX 01 11:53:46
TRACK 05 AUDIO
TITLE “Rainbow In The Dark”
PERFORMER “Ronnie James Dio”
ISRC GE9080300553
INDEX 00 17:44:22
INDEX 01 17:47:26
TRACK 06 AUDIO
TITLE “We Rock”
PERFORMER “Ronnie James Dio”
ISRC GE9088490135
INDEX 00 22:01:04
INDEX 01 22:03:50
TRACK 07 AUDIO
TITLE “Rock ‘n’ Roll Children”
PERFORMER “Ronnie James Dio”
ISRC GE9088500684
INDEX 00 26:37:25
INDEX 01 26:39:29
TRACK 08 AUDIO
TITLE “All The Fools Sailed Away”
PERFORMER “Ronnie James Dio”
ISRC NGa050590038
INDEX 00 31:11:16
INDEX 01 31:13:55
TRACK 09 AUDIO
TITLE “I”
PERFORMER “Ronnie James Dio”
ISRC UY=A21003167
INDEX 00 38:25:22
INDEX 01 38:27:27
TRACK 10 AUDIO
TITLE “Push”
PERFORMER “Ronnie James Dio”
ISRC GE9BR0200050
INDEX 00 43:37:54
INDEX 01 43:39:58
TRACK 11 AUDIO
TITLE “One More For The Road”
PERFORMER “Ronnie James Dio”
ISRC GE9JE0400804
INDEX 00 47:46:63
INDEX 01 47:48:67
TRACK 12 AUDIO
TITLE “Shadow Of The Wind”
PERFORMER “Ronnie James Dio”
ISRC UY>H10720700
INDEX 00 51:06:40
INDEX 01 51:08:23
TRACK 13 AUDIO
TITLE “Neon Knights (Live)”
PERFORMER “Ronnie James Dio”
ISRC UY>H10721985
INDEX 00 56:46:00
INDEX 01 56:48:58
TRACK 14 AUDIO
TITLE “Bible Black”
PERFORMER “Ronnie James Dio”
ISRC UY>H10901697
INDEX 00 64:38:35
INDEX 01 64:40:16


Spread the Download

Leave a Reply

Your email address will not be published. Required fields are marked *

Enter the text from the image below
 

This site uses Akismet to reduce spam. Learn how your comment data is processed.