Rolo Tomassi – Time Will Die And Love Will Bury It




[Total: 0    Average: 0/5]

Artist: Rolo Tomassi
Year: 2018
Genre: Metal
Notes: Discogs
Add. Notes:
Cover incl.: Yes
Encoder: FLAC
Bitrate: ~900 kBit/s (44.1 kHz/16 Bit/s)
Log & Cue incl.: Yes
Size: 511,78 MB
Password: “slam” (without ” “)


All Downloads/Hosters are compatible

Download 1
Share-online.biz
KatFile.com
Rapidgator.net
Download 2
Share-online.biz
KatFile.com
Rapidgator.net

Tracklist:

1 - Towards Dawn - 3:44
2 - Aftermath - 3:52
3 - Rituals - 3:24
4 - The Hollow Hour - 7:28
5 - Balancing The Dark - 3:59
6 - Alma Mater - 3:10
7 - A Flood Of Light - 8:20
8 - Whispers Among Us - 5:10
9 - Contretemps - 8:16
10 - Risen - 5:37

EAC-Log, CUE-Sheed & NFO:

Click to open spoiler
Exact Audio Copy V1.3 from 2. September 2016

EAC extraction logfile from 30. August 2018, 12:48

Rolo Tomassi / Time Will Die And Love Will Bury It

Used drive : ASUS DRW-24F1ST a Adapter: 1 ID: 0

Read mode : Secure
Utilize accurate stream : Yes
Defeat audio cache : Yes
Make use of C2 pointers : No

Read offset correction : 6
Overread into Lead-In and Lead-Out : No
Fill up missing offset samples with silence : Yes
Delete leading and trailing silent blocks : No
Null samples used in CRC calculations : Yes
Used interface : Native Win32 interface for Win NT & 2000

Used output format : Internal WAV Routines
Sample format : 44.100 Hz; 16 Bit; Stereo

TOC of the extracted CD

Track | Start | Length | Start sector | End sector
———————————————————
1 | 0:00.00 | 3:44.53 | 0 | 16852
2 | 3:44.53 | 3:52.37 | 16853 | 34289
3 | 7:37.15 | 3:24.56 | 34290 | 49645
4 | 11:01.71 | 7:28.04 | 49646 | 83249
5 | 18:30.00 | 3:59.21 | 83250 | 101195
6 | 22:29.21 | 3:10.66 | 101196 | 115511
7 | 25:40.12 | 8:19.72 | 115512 | 153008
8 | 34:00.09 | 5:10.31 | 153009 | 176289
9 | 39:10.40 | 8:16.43 | 176290 | 213532
10 | 47:27.08 | 5:37.04 | 213533 | 238811

Range status and errors

Selected range

Filename C:\Jobforaworm\Rolo Tomassi – Time Will Die And Love Will Bury It.wav

Peak level 94.4 %
Extraction speed 6.8 X
Range quality 100.0 %
Test CRC E25200A5
Copy CRC E25200A5
Copy OK

No errors occurred

AccurateRip summary

Track 1 accurately ripped (confidence 3) [243D0562] (AR v2)
Track 2 accurately ripped (confidence 3) [2D36DCA9] (AR v2)
Track 3 accurately ripped (confidence 3) [88B8A56D] (AR v2)
Track 4 accurately ripped (confidence 3) [428028C1] (AR v2)
Track 5 accurately ripped (confidence 3) [C44FEA81] (AR v2)
Track 6 accurately ripped (confidence 3) [F63DB4E3] (AR v2)
Track 7 accurately ripped (confidence 3) [1783E46B] (AR v2)
Track 8 accurately ripped (confidence 3) [9B1ACF57] (AR v2)
Track 9 accurately ripped (confidence 3) [4CB26FBE] (AR v2)
Track 10 accurately ripped (confidence 3) [3EA45026] (AR v2)

All tracks accurately ripped

End of status report

—- CUETools DB Plugin V2.1.6

[CTDB TOCID: I0f54tfppJ4Cm7Vlonmy8LDBWaw-] found
Submit result: I0f54tfppJ4Cm7Vlonmy8LDBWaw- has been confirmed
Track | CTDB Status
1 | (16/17) Accurately ripped
2 | (16/17) Accurately ripped
3 | (16/17) Accurately ripped
4 | (16/17) Accurately ripped
5 | (16/17) Accurately ripped
6 | (16/17) Accurately ripped
7 | (16/17) Accurately ripped
8 | (16/17) Accurately ripped
9 | (16/17) Accurately ripped
10 | (16/17) Accurately ripped

==== Log checksum BD5CC22B5E5BD6A2199D0281299B56ED69136706BAB9D7ECD2F733480E79A831 ====

REM GENRE Mathcore
REM DATE 2018
REM DISCID 730C700A
REM COMMENT “Holy Roar Records, HRR221CD”
PERFORMER “Rolo Tomassi”
TITLE “Time Will Die And Love Will Bury It”
FILE “Rolo Tomassi – Time Will Die And Love Will Bury It.flac” WAVE
TRACK 01 AUDIO
TITLE “Towards Dawn”
PERFORMER “Rolo Tomassi”
INDEX 01 00:00:00
TRACK 02 AUDIO
TITLE “Aftermath”
PERFORMER “Rolo Tomassi”
INDEX 01 03:44:53
TRACK 03 AUDIO
TITLE “Rituals”
PERFORMER “Rolo Tomassi”
INDEX 01 07:37:15
TRACK 04 AUDIO
TITLE “The Hollow Hour”
PERFORMER “Rolo Tomassi”
INDEX 01 11:01:71
TRACK 05 AUDIO
TITLE “Balancing The Dark”
PERFORMER “Rolo Tomassi”
INDEX 01 18:30:00
TRACK 06 AUDIO
TITLE “Alma Mater”
PERFORMER “Rolo Tomassi”
INDEX 01 22:29:21
TRACK 07 AUDIO
TITLE “A Flood Of Light”
PERFORMER “Rolo Tomassi”
INDEX 01 25:40:12
TRACK 08 AUDIO
TITLE “Whispers Among Us”
PERFORMER “Rolo Tomassi”
INDEX 01 34:00:09
TRACK 09 AUDIO
TITLE “Contretemps”
PERFORMER “Rolo Tomassi”
INDEX 01 39:10:40
TRACK 10 AUDIO
TITLE “Risen”
PERFORMER “Rolo Tomassi”
INDEX 01 47:27:08


Spread the Download

Leave a Reply

Your email address will not be published. Required fields are marked *

Enter the text from the image below
 

This site uses Akismet to reduce spam. Learn how your comment data is processed.