Rolo Tomassi – Rolo Tomassi (Demo) (Limited Edition)




Artist: Rolo Tomassi
Year: 2005
Genre: Metal
Notes: Discogs
Add. Notes: Limited Edition
Cover incl.: Yes
Encoder: FLAC
Bitrate: ~700 kBit/s (44.1 kHz/16 Bit/s)
Log & Cue incl.: Yes
Size: 83,14 MB
Password: “slam” (without ” “)


All Downloads/Hosters are compatible

Download 1
Turbobit.net
NitroFlare.com
KatFile.com
Rapidgator.net
Download 2
Turbobit.net
NitroFlare.com
KatFile.com
Rapidgator.net

Tracklist:

1 - Breathing Through A City (Is Much Harder Than Just 
Breathing) - 0:36
2 - The Tentatively Titled Film Noir - 2:28
3 - ...And Then The Mannequin Spoke - 10:00

EAC-Log, CUE-Sheed & NFO:

Click to open spoiler
Exact Audio Copy V1.3 from 2. September 2016

EAC extraction logfile from 30. August 2018, 11:39

Rolo Tomassi / Rolo Tomassi

Used drive : ASUS DRW-24F1ST a Adapter: 1 ID: 0

Read mode : Secure
Utilize accurate stream : Yes
Defeat audio cache : Yes
Make use of C2 pointers : No

Read offset correction : 6
Overread into Lead-In and Lead-Out : No
Fill up missing offset samples with silence : Yes
Delete leading and trailing silent blocks : No
Null samples used in CRC calculations : Yes
Used interface : Native Win32 interface for Win NT & 2000

Used output format : Internal WAV Routines
Sample format : 44.100 Hz; 16 Bit; Stereo

TOC of the extracted CD

Track | Start | Length | Start sector | End sector
———————————————————
1 | 0:00.00 | 0:36.04 | 0 | 2703
2 | 0:36.04 | 2:28.01 | 2704 | 13804
3 | 3:04.05 | 10:00.20 | 13805 | 58824

Range status and errors

Selected range

Filename C:\Jobforaworm\Rolo Tomassi – Rolo Tomassi.wav

Peak level 100.0 %
Extraction speed 5.8 X
Range quality 100.0 %
Test CRC 00C0A960
Copy CRC 00C0A960
Copy OK

No errors occurred

AccurateRip summary

Track 1 not present in database
Track 2 not present in database
Track 3 not present in database

None of the tracks are present in the AccurateRip database

End of status report

—- CUETools DB Plugin V2.1.6

[CTDB TOCID: aeBdvGt45.JjvbcR5fHuFjkgHSY-] disk not present in database
Submit result: aeBdvGt45.JjvbcR5fHuFjkgHSY- has been uploaded

==== Log checksum AD967656B54B01D2709E22ADA8FA8441CE5A5101391144C8BC325DE352C5AB7D ====

REM GENRE Mathcore
REM DATE 2005
REM DISCID 1C031003
REM COMMENT “Mayday! 001”
PERFORMER “Rolo Tomassi”
TITLE “Rolo Tomassi”
FILE “Rolo Tomassi – Rolo Tomassi.flac” WAVE
TRACK 01 AUDIO
TITLE “Breathing Through a City is Much Harder Than Just Breathing (Demo)”
PERFORMER “Rolo Tomassi”
INDEX 01 00:00:00
TRACK 02 AUDIO
TITLE “The Tentatively Titled “Film Noir” (Demo)”
PERFORMER “Rolo Tomassi”
INDEX 01 00:36:04
TRACK 03 AUDIO
TITLE “…and Then the Mannequin Spoke (Demo)”
PERFORMER “Rolo Tomassi”
INDEX 01 03:04:05


Leave a Reply

Your email address will not be published. Required fields are marked *

Enter the text from the image below
 

This site uses Akismet to reduce spam. Learn how your comment data is processed.