Rolo Tomassi – Hysterics




[Total: 0    Average: 0/5]

Artist: Rolo Tomassi
Year: 2008
Genre: Metal
Notes: Discogs
Add. Notes:
Cover incl.: Yes
Encoder: FLAC
Bitrate: ~900 kBit/s (44.1 kHz/16 Bit/s)
Log & Cue incl.: Yes
Size: 460,59 MB
Password: “slam” (without ” “)


All Downloads/Hosters are compatible

Download 1
Share-online.biz
KatFile.com
Rapidgator.net
Download 2
Share-online.biz
KatFile.com
Rapidgator.net

Tracklist:

1 - Oh, Hello Ghost - 3:33
2 - I Love Turbulence - 2:48
3 - Fofteen - 2:45
4 - Abraxas - 2:26
5 - An Apology To The Universe - 1:18
6 - Nine - 4:03
7 - Macabre Charade - 3:48
8 - Trojan Measures - 1:00
9 - Everything Went Grey - 3:29
10 - Scabs - 4:31
11 - Fantasia - 14:21

EAC-Log, CUE-Sheed & NFO:

Click to open spoiler
Exact Audio Copy V1.3 from 2. September 2016

EAC extraction logfile from 1. October 2017, 8:48

Rolo Tomassi / Hysterics

Used drive : ASUS DRW-24F1ST a Adapter: 1 ID: 0

Read mode : Secure
Utilize accurate stream : Yes
Defeat audio cache : Yes
Make use of C2 pointers : No

Read offset correction : 6
Overread into Lead-In and Lead-Out : No
Fill up missing offset samples with silence : Yes
Delete leading and trailing silent blocks : No
Null samples used in CRC calculations : Yes
Used interface : Native Win32 interface for Win NT & 2000

Used output format : Internal WAV Routines
Sample format : 44.100 Hz; 16 Bit; Stereo

TOC of the extracted CD

Track | Start | Length | Start sector | End sector
———————————————————
1 | 0:02.04 | 3:32.60 | 154 | 16113
2 | 3:34.64 | 2:47.45 | 16114 | 28683
3 | 6:22.34 | 2:45.05 | 28684 | 41063
4 | 9:07.39 | 2:25.42 | 41064 | 51980
5 | 11:33.06 | 1:17.68 | 51981 | 57823
6 | 12:50.74 | 4:02.41 | 57824 | 76014
7 | 16:53.40 | 3:48.32 | 76015 | 93146
8 | 20:41.72 | 0:59.49 | 93147 | 97620
9 | 21:41.46 | 3:29.10 | 97621 | 113305
10 | 25:10.56 | 4:30.53 | 113306 | 133608
11 | 29:41.34 | 14:20.46 | 133609 | 198154

Range status and errors

Selected range

Filename C:\Jobforaworm\Rolo Tomassi – Hysterics.wav

Peak level 96.6 %
Extraction speed 2.1 X
Range quality 99.9 %
Test CRC 821EFEFA
Copy CRC 821EFEFA
Copy OK

No errors occurred

AccurateRip summary

Track 1 accurately ripped (confidence 8) [89104C59] (AR v2)
Track 2 accurately ripped (confidence 8) [A5C45554] (AR v2)
Track 3 accurately ripped (confidence 8) [618BE3E2] (AR v2)
Track 4 accurately ripped (confidence 8) [24BC2B0D] (AR v2)
Track 5 accurately ripped (confidence 8) [3F3312DC] (AR v2)
Track 6 accurately ripped (confidence 8) [89720781] (AR v2)
Track 7 accurately ripped (confidence 8) [D3E032B0] (AR v2)
Track 8 accurately ripped (confidence 8) [D8067708] (AR v2)
Track 9 accurately ripped (confidence 8) [FBCCCB0A] (AR v2)
Track 10 accurately ripped (confidence 8) [2251BB79] (AR v2)
Track 11 accurately ripped (confidence 8) [B206135C] (AR v2)

All tracks accurately ripped

End of status report

—- CUETools DB Plugin V2.1.6

[CTDB TOCID: WTgaFlgJq59HM1h2GIggMzV72QE-] found
Submit result: WTgaFlgJq59HM1h2GIggMzV72QE- has been confirmed
Track | CTDB Status
1 | (7/7) Accurately ripped
2 | (7/7) Accurately ripped
3 | (7/7) Accurately ripped
4 | (7/7) Accurately ripped
5 | (7/7) Accurately ripped
6 | (7/7) Accurately ripped
7 | (7/7) Accurately ripped
8 | (7/7) Accurately ripped
9 | (7/7) Accurately ripped
10 | (7/7) Accurately ripped
11 | (7/7) Accurately ripped

==== Log checksum 045CCB81FD4F1EE419C4539C5A50CC374CCA188FFF187BA91CDBBFA3FD4C0F8F ====

REM GENRE Mathcore
REM DATE 2008
REM DISCID 860A500B
REM COMMENT “Hassle Records, HOFF055CDA”
PERFORMER “Rolo Tomassi”
TITLE “Hysterics”
FILE “Rolo Tomassi – Hysterics.flac” WAVE
TRACK 01 AUDIO
TITLE “Oh, Hello Ghost”
PERFORMER “Rolo Tomassi”
FLAGS PRE
INDEX 00 00:00:00
INDEX 01 00:02:04
TRACK 02 AUDIO
TITLE “I Love Turbulence”
PERFORMER “Rolo Tomassi”
FLAGS PRE
INDEX 01 03:34:64
TRACK 03 AUDIO
TITLE “Fofteen”
PERFORMER “Rolo Tomassi”
FLAGS PRE
INDEX 01 06:22:34
TRACK 04 AUDIO
TITLE “Abraxas”
PERFORMER “Rolo Tomassi”
FLAGS PRE
INDEX 01 09:07:39
TRACK 05 AUDIO
TITLE “An Apology to the Universe”
PERFORMER “Rolo Tomassi”
FLAGS PRE
INDEX 01 11:33:06
TRACK 06 AUDIO
TITLE “Nine”
PERFORMER “Rolo Tomassi”
FLAGS PRE
INDEX 01 12:50:74
TRACK 07 AUDIO
TITLE “Macabre Charade”
PERFORMER “Rolo Tomassi”
FLAGS PRE
INDEX 01 16:53:40
TRACK 08 AUDIO
TITLE “Trojan Measures”
PERFORMER “Rolo Tomassi”
FLAGS PRE
INDEX 01 20:41:72
TRACK 09 AUDIO
TITLE “Everything Went Grey”
PERFORMER “Rolo Tomassi”
FLAGS PRE
INDEX 01 21:41:46
TRACK 10 AUDIO
TITLE “Scabs”
PERFORMER “Rolo Tomassi”
FLAGS PRE
INDEX 01 25:10:56
TRACK 11 AUDIO
TITLE “Fantasia”
PERFORMER “Rolo Tomassi”
FLAGS PRE
INDEX 01 29:41:34


Spread the Download

Leave a Reply

Your email address will not be published. Required fields are marked *

Enter the text from the image below
 

This site uses Akismet to reduce spam. Learn how your comment data is processed.