Rolo Tomassi – Grievances




[Total: 0    Average: 0/5]

Artist: Rolo Tomassi
Year: 2015
Genre: Hardcore
Notes: Discogs
Add. Notes:
Cover incl.: Yes
Encoder: FLAC
Bitrate: ~900 kBit/s (44.1 kHz/16 Bit/s)
Log & Cue incl.: Yes
Size: 486,39 MB
Password: “slam” (without ” “)


All Downloads/Hosters are compatible

Download 1
Share-online.biz
KatFile.com
Rapidgator.net
NitroFlare.com
Download 2
Share-online.biz
KatFile.com
Rapidgator.net
NitroFlare.com

Tracklist:

1 - Estranged - 2:40
2 - Raumdeuter - 5:16
3 - The Embers - 3:16
4 - Prelude III (Phantoms) - 1:43
5 - Opalescent - 4:42
6 - Unseen And Unknown - 0:38
7 - Stage Knives - 3:52
8 - Crystal Cascades - 3:20
9 - Chandelier Shiver - 2:14
10 - Funereal - 4:57
11 - All That Has Gone Before - 7:20

EAC-Log, CUE-Sheed & NFO:

Click to open spoiler
Exact Audio Copy V1.3 from 2. September 2016

EAC extraction logfile from 30. August 2018, 18:53

Rolo Tomassi / Grievances

Used drive : ASUS DRW-24F1ST a Adapter: 1 ID: 0

Read mode : Secure
Utilize accurate stream : Yes
Defeat audio cache : Yes
Make use of C2 pointers : No

Read offset correction : 6
Overread into Lead-In and Lead-Out : No
Fill up missing offset samples with silence : Yes
Delete leading and trailing silent blocks : No
Null samples used in CRC calculations : Yes
Used interface : Native Win32 interface for Win NT & 2000

Used output format : Internal WAV Routines
Sample format : 44.100 Hz; 16 Bit; Stereo

TOC of the extracted CD

Track | Start | Length | Start sector | End sector
———————————————————
1 | 0:00.00 | 2:40.27 | 0 | 12026
2 | 2:40.27 | 5:16.05 | 12027 | 35731
3 | 7:56.32 | 3:16.14 | 35732 | 50445
4 | 11:12.46 | 1:42.73 | 50446 | 58168
5 | 12:55.44 | 4:42.39 | 58169 | 79357
6 | 17:38.08 | 0:37.72 | 79358 | 82204
7 | 18:16.05 | 3:52.60 | 82205 | 99664
8 | 22:08.65 | 3:20.01 | 99665 | 114665
9 | 25:28.66 | 2:14.41 | 114666 | 124756
10 | 27:43.32 | 4:57.52 | 124757 | 147083
11 | 32:41.09 | 7:19.73 | 147084 | 180081

Range status and errors

Selected range

Filename C:\Jobforaworm\Rolo Tomassi – Grievances.wav

Peak level 97.3 %
Extraction speed 2.6 X
Range quality 100.0 %
Test CRC 6782D282
Copy CRC 6782D282
Copy OK

No errors occurred

AccurateRip summary

Track 1 accurately ripped (confidence 7) [4308D292] (AR v2)
Track 2 accurately ripped (confidence 7) [60D9ADB5] (AR v2)
Track 3 accurately ripped (confidence 7) [3B162530] (AR v2)
Track 4 accurately ripped (confidence 7) [891EF427] (AR v2)
Track 5 accurately ripped (confidence 7) [75754D0F] (AR v2)
Track 6 accurately ripped (confidence 7) [6CA90E42] (AR v2)
Track 7 accurately ripped (confidence 7) [93190F3E] (AR v2)
Track 8 accurately ripped (confidence 7) [84E8DDD9] (AR v2)
Track 9 accurately ripped (confidence 7) [30BAD895] (AR v2)
Track 10 accurately ripped (confidence 7) [6649AFB2] (AR v2)
Track 11 accurately ripped (confidence 8) [64924345] (AR v2)

All tracks accurately ripped

End of status report

—- CUETools DB Plugin V2.1.6

[CTDB TOCID: FOyr8oAAhX6vqVAuJjysiyWvfCA-] found
Submit result: already submitted
Track | CTDB Status
1 | (16/16) Accurately ripped
2 | (16/16) Accurately ripped
3 | (16/16) Accurately ripped
4 | (16/16) Accurately ripped
5 | (16/16) Accurately ripped
6 | (16/16) Accurately ripped
7 | (16/16) Accurately ripped
8 | (16/16) Accurately ripped
9 | (16/16) Accurately ripped
10 | (16/16) Accurately ripped
11 | (16/16) Accurately ripped

==== Log checksum 04921542B536E74A0FB19BCE3FD83786E62119F8329075FD9C70600D58EE9021 ====

REM GENRE Mathcore
REM DATE 2015
REM DISCID 9209610B
REM COMMENT “Holy Roar Records, HRR135CD”
PERFORMER “Rolo Tomassi”
TITLE “Grievances”
FILE “Rolo Tomassi – Grievances.flac” WAVE
TRACK 01 AUDIO
TITLE “Estranged”
PERFORMER “Rolo Tomassi”
INDEX 01 00:00:00
TRACK 02 AUDIO
TITLE “Raumdeuter”
PERFORMER “Rolo Tomassi”
INDEX 01 02:40:27
TRACK 03 AUDIO
TITLE “The Embers”
PERFORMER “Rolo Tomassi”
INDEX 01 07:56:32
TRACK 04 AUDIO
TITLE “Prelude III (Phantoms)”
PERFORMER “Rolo Tomassi”
INDEX 01 11:12:46
TRACK 05 AUDIO
TITLE “Opalescent”
PERFORMER “Rolo Tomassi”
INDEX 01 12:55:44
TRACK 06 AUDIO
TITLE “Unseen And Unknown”
PERFORMER “Rolo Tomassi”
INDEX 01 17:38:08
TRACK 07 AUDIO
TITLE “Stage Knives”
PERFORMER “Rolo Tomassi”
INDEX 01 18:16:05
TRACK 08 AUDIO
TITLE “Crystal Cascades”
PERFORMER “Rolo Tomassi”
INDEX 01 22:08:65
TRACK 09 AUDIO
TITLE “Chandelier Shiver”
PERFORMER “Rolo Tomassi”
INDEX 01 25:28:66
TRACK 10 AUDIO
TITLE “Funereal”
PERFORMER “Rolo Tomassi”
INDEX 01 27:43:32
TRACK 11 AUDIO
TITLE “All That Has Gone Before”
PERFORMER “Rolo Tomassi”
INDEX 01 32:41:09


Spread the Download

Leave a Reply

Your email address will not be published. Required fields are marked *

Enter the text from the image below
 

This site uses Akismet to reduce spam. Learn how your comment data is processed.