Rolo Tomassi – Eternal Youth




[Total: 0    Average: 0/5]

Artist: Rolo Tomassi
Year: 2011
Genre: Hardcore
Notes: Discogs
Add. Notes:
Cover incl.: Yes
Encoder: FLAC
Bitrate: ~900 kBit/s (44.1 kHz/16 Bit/s)
Log & Cue incl.: Yes
Size: 950,64 MB
Password: “slam” (without ” “)


All Downloads/Hosters are compatible

Download 1
Share-online.biz
KatFile.com
Rapidgator.net
Download 2
Share-online.biz
KatFile.com
Rapidgator.net

Tracklist:

1-1 - Mount Celestia - 7:18
1-2 - Titanomachia - 6:38
1-3 - Pillfox - 2:23
1-4 - The Golden Ghost - 3:14
1-5 - Jealous Bones - 2:03
1-6 - Apocalypso 2009 - 1:08
1-7 - Digital History - 1:38
1-8 - Beatrotter - 1:41
1-9 - Film Noir - 1:50
1-10 - Curby - 2:12
1-11 - Cirque Du Funk - 4:34
1-12 - Prelude - 1:57
1-13 - Seagull - 5:13
1-14 - ...And Then The Mannequin Spoke - 2:40
1-15 - C Is For Calculus - 7:37
1-16 - Fuck The Pleasantries Lets Rock - 1:55
1-17 - Apocalypso (Original) - 1:33
1-18 - Rock The Pleasantries Lets Fuck - 2:28
1-19 - Codes Within Codes - 2:56
1-20 - From Ambience To Ambulance - 1:00
1-21 - Hiroshima 8.16am - 2:11
1-22 - A Cosmic Accident - 11:20

2-1 - Breathing Through A City.... - 0:33
2-2 - The Tentatively Titled "Film Noir" - 2:27
2-3 - ...And Then The Mannequin Spoke (Original) - 2:36
2-4 - Headclouds/Reign Of Low (Throats Cover) - 3:25
2-5 - Oh Hello Ghost (Acoustic) - 2:45
2-6 - Nine (Acoustic) - 2:56
2-7 - Abraxas (Cereal Remix) - 3:23
2-8 - I Love Turbulence (Three Trapped Tigers Remix) - 
4:00
2-9 - Fuck The Pleasantries Lets Remix (: ( Remix) - 1:44
2-10 - C Is For Drowning Under Waves Of Listless Apathy 
(Ornine Remix) - 5:48
2-11 - Beatrotter (Please Will Remix) - 3:43
2-12 - Tongue In Chic (Team Wold Remix) - 4:25
2-13 - Fofteen (Dolby Anol Gets Dark Remix) - 4:46
2-14 - I Love Turbulence (Rich Manu Reworking) - 5:28

EAC-Log, CUE-Sheed & NFO:

Click to open spoiler
Exact Audio Copy V1.3 from 2. September 2016

EAC extraction logfile from 1. October 2017, 10:57

Rolo Tomassi / Eternal Youth (Disc Two)

Used drive : ASUS DRW-24F1ST a Adapter: 1 ID: 0

Read mode : Secure
Utilize accurate stream : Yes
Defeat audio cache : Yes
Make use of C2 pointers : No

Read offset correction : 6
Overread into Lead-In and Lead-Out : No
Fill up missing offset samples with silence : Yes
Delete leading and trailing silent blocks : No
Null samples used in CRC calculations : Yes
Used interface : Native Win32 interface for Win NT & 2000

Used output format : Internal WAV Routines
Sample format : 44.100 Hz; 16 Bit; Stereo

TOC of the extracted CD

Track | Start | Length | Start sector | End sector
———————————————————
1 | 0:00.00 | 0:33.56 | 0 | 2530
2 | 0:33.56 | 2:27.71 | 2531 | 13626
3 | 3:01.52 | 2:36.04 | 13627 | 25330
4 | 5:37.56 | 3:25.28 | 25331 | 40733
5 | 9:03.09 | 2:45.28 | 40734 | 53136
6 | 11:48.37 | 2:56.24 | 53137 | 66360
7 | 14:44.61 | 3:23.12 | 66361 | 81597
8 | 18:07.73 | 4:00.00 | 81598 | 99597
9 | 22:07.73 | 1:44.07 | 99598 | 107404
10 | 23:52.05 | 5:48.49 | 107405 | 133553
11 | 29:40.54 | 3:43.00 | 133554 | 150278
12 | 33:23.54 | 4:25.37 | 150279 | 170190
13 | 37:49.16 | 4:46.33 | 170191 | 191673
14 | 42:35.49 | 5:28.22 | 191674 | 216295

Range status and errors

Selected range

Filename C:\Jobforaworm\Rolo Tomassi – Eternal Youth (Disc Two).wav

Peak level 100.0 %
Extraction speed 2.7 X
Range quality 100.0 %
Test CRC 923D33BC
Copy CRC 923D33BC
Copy OK

No errors occurred

AccurateRip summary

Track 1 accurately ripped (confidence 7) [B0D37993] (AR v2)
Track 2 accurately ripped (confidence 7) [66CC4A03] (AR v2)
Track 3 accurately ripped (confidence 7) [8076D48F] (AR v2)
Track 4 accurately ripped (confidence 7) [C6CC0FA9] (AR v2)
Track 5 accurately ripped (confidence 7) [EC0133CC] (AR v2)
Track 6 accurately ripped (confidence 7) [B811B83E] (AR v2)
Track 7 accurately ripped (confidence 7) [25D8C3FF] (AR v2)
Track 8 accurately ripped (confidence 7) [E59CB468] (AR v2)
Track 9 accurately ripped (confidence 7) [D1D85170] (AR v2)
Track 10 accurately ripped (confidence 7) [B460D635] (AR v2)
Track 11 accurately ripped (confidence 7) [5C37E330] (AR v2)
Track 12 accurately ripped (confidence 7) [27520994] (AR v2)
Track 13 accurately ripped (confidence 7) [A3C26341] (AR v2)
Track 14 accurately ripped (confidence 6) [51D25688] (AR v2)

All tracks accurately ripped

End of status report

—- CUETools DB Plugin V2.1.6

[CTDB TOCID: Ans2bP9JChiDkQPD_YnCKrxYx20-] found
Submit result: Ans2bP9JChiDkQPD_YnCKrxYx20- has been confirmed
Track | CTDB Status
1 | (8/8) Accurately ripped
2 | (8/8) Accurately ripped
3 | (8/8) Accurately ripped
4 | (8/8) Accurately ripped
5 | (8/8) Accurately ripped
6 | (8/8) Accurately ripped
7 | (8/8) Accurately ripped
8 | (8/8) Accurately ripped
9 | (8/8) Accurately ripped
10 | (8/8) Accurately ripped
11 | (8/8) Accurately ripped
12 | (8/8) Accurately ripped
13 | (8/8) Accurately ripped
14 | (8/8) Accurately ripped

==== Log checksum E4667D982101FC1039E578630CF3D55A60B24AE6D7812375E68847869F970F14 ====

Exact Audio Copy V1.3 from 2. September 2016

EAC extraction logfile from 1. October 2017, 10:14

Rolo Tomassi / Eternal Youth (Disc One)

Used drive : ASUS DRW-24F1ST a Adapter: 1 ID: 0

Read mode : Secure
Utilize accurate stream : Yes
Defeat audio cache : Yes
Make use of C2 pointers : No

Read offset correction : 6
Overread into Lead-In and Lead-Out : No
Fill up missing offset samples with silence : Yes
Delete leading and trailing silent blocks : No
Null samples used in CRC calculations : Yes
Used interface : Native Win32 interface for Win NT & 2000

Used output format : Internal WAV Routines
Sample format : 44.100 Hz; 16 Bit; Stereo

TOC of the extracted CD

Track | Start | Length | Start sector | End sector
———————————————————
1 | 0:00.00 | 7:18.00 | 0 | 32849
2 | 7:18.00 | 6:38.56 | 32850 | 62755
3 | 13:56.56 | 2:23.18 | 62756 | 73498
4 | 16:19.74 | 3:14.04 | 73499 | 88052
5 | 19:34.03 | 2:03.02 | 88053 | 97279
6 | 21:37.05 | 1:08.61 | 97280 | 102440
7 | 22:45.66 | 1:38.63 | 102441 | 109853
8 | 24:24.54 | 1:41.18 | 109854 | 117446
9 | 26:05.72 | 1:50.18 | 117447 | 125714
10 | 27:56.15 | 2:12.25 | 125715 | 135639
11 | 30:08.40 | 4:34.08 | 135640 | 156197
12 | 34:42.48 | 1:57.61 | 156198 | 165033
13 | 36:40.34 | 5:13.10 | 165034 | 188518
14 | 41:53.44 | 2:40.56 | 188519 | 200574
15 | 44:34.25 | 7:37.09 | 200575 | 234858
16 | 52:11.34 | 1:55.56 | 234859 | 243539
17 | 54:07.15 | 1:33.23 | 243540 | 250537
18 | 55:40.38 | 2:58.22 | 250538 | 263909
19 | 58:38.60 | 2:56.45 | 263910 | 277154
20 | 61:35.30 | 1:00.62 | 277155 | 281716
21 | 62:36.17 | 2:11.54 | 281717 | 291595
22 | 64:47.71 | 11:20.10 | 291596 | 342605

Range status and errors

Selected range

Filename C:\Jobforaworm\Rolo Tomassi – Eternal Youth (Disc One).wav

Peak level 100.0 %
Extraction speed 7.6 X
Range quality 100.0 %
Test CRC 1FE26A61
Copy CRC 1FE26A61
Copy OK

No errors occurred

AccurateRip summary

Track 1 accurately ripped (confidence 7) [70CC8C23] (AR v2)
Track 2 accurately ripped (confidence 7) [9DEE523F] (AR v2)
Track 3 accurately ripped (confidence 7) [46CCF647] (AR v2)
Track 4 accurately ripped (confidence 7) [2B92216A] (AR v2)
Track 5 accurately ripped (confidence 7) [DB0C26A1] (AR v2)
Track 6 accurately ripped (confidence 7) [8514FFA0] (AR v2)
Track 7 accurately ripped (confidence 7) [BE1CD77E] (AR v2)
Track 8 accurately ripped (confidence 7) [4911ECF6] (AR v2)
Track 9 accurately ripped (confidence 7) [5F309E7D] (AR v2)
Track 10 accurately ripped (confidence 7) [9B65723F] (AR v2)
Track 11 accurately ripped (confidence 7) [3ABC73F3] (AR v2)
Track 12 accurately ripped (confidence 7) [DEDE1DEF] (AR v2)
Track 13 accurately ripped (confidence 7) [C290EB4D] (AR v2)
Track 14 accurately ripped (confidence 7) [C69147E6] (AR v2)
Track 15 accurately ripped (confidence 7) [285A2025] (AR v2)
Track 16 accurately ripped (confidence 7) [2B1D3B4A] (AR v2)
Track 17 accurately ripped (confidence 7) [155D7D46] (AR v2)
Track 18 accurately ripped (confidence 7) [0F0CB47F] (AR v2)
Track 19 accurately ripped (confidence 7) [C8F0E8AE] (AR v2)
Track 20 accurately ripped (confidence 7) [30D54D2D] (AR v2)
Track 21 accurately ripped (confidence 7) [40471895] (AR v2)
Track 22 accurately ripped (confidence 6) [BC188820] (AR v2)

All tracks accurately ripped

End of status report

—- CUETools DB Plugin V2.1.6

[CTDB TOCID: QUE38rX0ArziW3.T0BBheFj2zSY-] found
Submit result: QUE38rX0ArziW3.T0BBheFj2zSY- has been confirmed
Track | CTDB Status
1 | (8/8) Accurately ripped
2 | (8/8) Accurately ripped
3 | (8/8) Accurately ripped
4 | (8/8) Accurately ripped
5 | (8/8) Accurately ripped
6 | (8/8) Accurately ripped
7 | (8/8) Accurately ripped
8 | (8/8) Accurately ripped
9 | (8/8) Accurately ripped
10 | (8/8) Accurately ripped
11 | (8/8) Accurately ripped
12 | (8/8) Accurately ripped
13 | (8/8) Accurately ripped
14 | (8/8) Accurately ripped
15 | (8/8) Accurately ripped
16 | (8/8) Accurately ripped
17 | (8/8) Accurately ripped
18 | (8/8) Accurately ripped
19 | (8/8) Accurately ripped
20 | (8/8) Accurately ripped
21 | (8/8) Accurately ripped
22 | (8/8) Accurately ripped

==== Log checksum 8AF944BF23B64FB62C62493B22FBE2F2F6543D914BC3815F415A02147A6DB17F ====

REM GENRE Mathcore
REM DATE 2011
REM DISCID 5D11D816
REM COMMENT “Destination Moon, DM002”
PERFORMER “Rolo Tomassi”
TITLE “Eternal Youth”
FILE “Rolo Tomassi – Eternal Youth (Disc One).flac” WAVE
TRACK 01 AUDIO
TITLE “Mount Celestia”
PERFORMER “Rolo Tomassi”
INDEX 01 00:00:00
TRACK 02 AUDIO
TITLE “Titanomachia”
PERFORMER “Rolo Tomassi”
INDEX 01 07:18:00
TRACK 03 AUDIO
TITLE “Pillfox”
PERFORMER “Rolo Tomassi”
INDEX 01 13:56:56
TRACK 04 AUDIO
TITLE “The Golden Ghost”
PERFORMER “Rolo Tomassi”
INDEX 01 16:19:74
TRACK 05 AUDIO
TITLE “Jealous Bones”
PERFORMER “Rolo Tomassi”
INDEX 01 19:34:03
TRACK 06 AUDIO
TITLE “Apocalypso 2009”
PERFORMER “Rolo Tomassi”
INDEX 01 21:37:05
TRACK 07 AUDIO
TITLE “Digital History”
PERFORMER “Rolo Tomassi”
INDEX 01 22:45:66
TRACK 08 AUDIO
TITLE “Beatrotter”
PERFORMER “Rolo Tomassi”
INDEX 01 24:24:54
TRACK 09 AUDIO
TITLE “Film Noir”
PERFORMER “Rolo Tomassi”
INDEX 01 26:05:72
TRACK 10 AUDIO
TITLE “Curby”
PERFORMER “Rolo Tomassi”
INDEX 01 27:56:15
TRACK 11 AUDIO
TITLE “Cirque du Funk”
PERFORMER “Rolo Tomassi”
INDEX 01 30:08:40
TRACK 12 AUDIO
TITLE “Prelude”
PERFORMER “Rolo Tomassi”
INDEX 01 34:42:48
TRACK 13 AUDIO
TITLE “Seagull”
PERFORMER “Rolo Tomassi”
INDEX 01 36:40:34
TRACK 14 AUDIO
TITLE “…And Then the Mannequin Spoke”
PERFORMER “Rolo Tomassi”
INDEX 01 41:53:44
TRACK 15 AUDIO
TITLE “C is for Calculus”
PERFORMER “Rolo Tomassi”
INDEX 01 44:34:25
TRACK 16 AUDIO
TITLE “Fuck the Pleasantries Let’s Rock”
PERFORMER “Rolo Tomassi”
INDEX 01 52:11:34
TRACK 17 AUDIO
TITLE “Apocalypso”
PERFORMER “Rolo Tomassi”
INDEX 01 54:07:15
TRACK 18 AUDIO
TITLE “Rock the Pleasantries Let’s Fuck”
PERFORMER “Rolo Tomassi”
INDEX 01 55:40:38
TRACK 19 AUDIO
TITLE “Codes Within Codes”
PERFORMER “Rolo Tomassi”
INDEX 01 58:38:60
TRACK 20 AUDIO
TITLE “From Ambience to Ambulance”
PERFORMER “Rolo Tomassi”
INDEX 01 61:35:30
TRACK 21 AUDIO
TITLE “Hiroshima 8.16am”
PERFORMER “Rolo Tomassi”
INDEX 01 62:36:17
TRACK 22 AUDIO
TITLE “A Cosmic Accident”
PERFORMER “Rolo Tomassi”
INDEX 01 64:47:71

REM GENRE Mathcore
REM DATE 2011
REM DISCID B60B430E
REM COMMENT “Destination Moon, DM002”
PERFORMER “Rolo Tomassi”
TITLE “Eternal Youth”
FILE “Rolo Tomassi – Eternal Youth (Disc Two).flac” WAVE
TRACK 01 AUDIO
TITLE “Breathing Through a City…”
PERFORMER “Rolo Tomassi”
INDEX 01 00:00:00
TRACK 02 AUDIO
TITLE “The Tentatively Titled “Film Noir””
PERFORMER “Rolo Tomassi”
INDEX 01 00:33:56
TRACK 03 AUDIO
TITLE “…And Then the Mannequin Spoke”
PERFORMER “Rolo Tomassi”
INDEX 01 03:01:52
TRACK 04 AUDIO
TITLE “Headclouds/Reign of Low (Throats cover)”
PERFORMER “Rolo Tomassi”
INDEX 01 05:37:56
TRACK 05 AUDIO
TITLE “Oh, Hello Ghost (Acoustic)”
PERFORMER “Rolo Tomassi”
INDEX 01 09:03:09
TRACK 06 AUDIO
TITLE “Nine (Acoustic)”
PERFORMER “Rolo Tomassi”
INDEX 01 11:48:37
TRACK 07 AUDIO
TITLE “Abraxas (Cereal remix)”
PERFORMER “Rolo Tomassi”
INDEX 01 14:44:61
TRACK 08 AUDIO
TITLE “I Love Turbulence (Three Trapped Tigers remix)”
PERFORMER “Rolo Tomassi”
INDEX 01 18:07:73
TRACK 09 AUDIO
TITLE “Fuck the Pleasantries, Let’s Remix (:( remix)”
PERFORMER “Rolo Tomassi”
INDEX 01 22:07:73
TRACK 10 AUDIO
TITLE “C is for Drowning Under Waves of Listless Apathy (Ornine remix)”
PERFORMER “Rolo Tomassi”
INDEX 01 23:52:05
TRACK 11 AUDIO
TITLE “Beatrotter (Please Will remix)”
PERFORMER “Rolo Tomassi”
INDEX 01 29:40:54
TRACK 12 AUDIO
TITLE “Tongue in Chic (Team Wold remix)”
PERFORMER “Rolo Tomassi”
INDEX 01 33:23:54
TRACK 13 AUDIO
TITLE “Fofteen (Dolby Anol Gets Dark remix)”
PERFORMER “Rolo Tomassi”
INDEX 01 37:49:16
TRACK 14 AUDIO
TITLE “I Love Turbulence (Rich Manu rework)”
PERFORMER “Rolo Tomassi”
INDEX 01 42:35:49


Spread the Download

Leave a Reply

Your email address will not be published. Required fields are marked *

Enter the text from the image below
 

This site uses Akismet to reduce spam. Learn how your comment data is processed.