Rolo Tomassi – Cosmology




[Total: 0    Average: 0/5]

Artist: Rolo Tomassi
Year: 2010
Genre: Metal
Notes: Discogs
Add. Notes:
Cover incl.: Yes
Encoder: FLAC
Bitrate: ~1000 kBit/s (44.1 kHz/16 Bit/s)
Log & Cue incl.: Yes
Size: 453,35 MB
Password: “slam” (without ” “)


All Downloads/Hosters are compatible

Download 1
Share-online.biz
KatFile.com
Rapidgator.net
Download 2
Share-online.biz
KatFile.com
Rapidgator.net

Tracklist:

1 - Katzenklavier - 1:04
2 - Agamemnon - 1:40
3 - House House Casanova - 1:15
4 - Party Wounds - 3:14
5 - Unromance - 4:03
6 - French Motel - 2:52
7 - Kasia - 5:31
8 - Sakia - 3:17
9 - Tongue In Chic - 5:11
10 - Cosmology - 7:43

EAC-Log, CUE-Sheed & NFO:

Click to open spoiler
Exact Audio Copy V1.3 from 2. September 2016

EAC extraction logfile from 1. October 2017, 9:37

Rolo Tomassi / Cosmology

Used drive : ASUS DRW-24F1ST a Adapter: 1 ID: 0

Read mode : Secure
Utilize accurate stream : Yes
Defeat audio cache : Yes
Make use of C2 pointers : No

Read offset correction : 6
Overread into Lead-In and Lead-Out : No
Fill up missing offset samples with silence : Yes
Delete leading and trailing silent blocks : No
Null samples used in CRC calculations : Yes
Used interface : Native Win32 interface for Win NT & 2000

Used output format : Internal WAV Routines
Sample format : 44.100 Hz; 16 Bit; Stereo

TOC of the extracted CD

Track | Start | Length | Start sector | End sector
———————————————————
1 | 0:00.00 | 1:04.15 | 0 | 4814
2 | 1:04.15 | 1:40.45 | 4815 | 12359
3 | 2:44.60 | 1:15.05 | 12360 | 17989
4 | 3:59.65 | 3:14.26 | 17990 | 32565
5 | 7:14.16 | 4:03.07 | 32566 | 50797
6 | 11:17.23 | 2:52.07 | 50798 | 63704
7 | 14:09.30 | 5:31.42 | 63705 | 88571
8 | 19:40.72 | 3:17.41 | 88572 | 103387
9 | 22:58.38 | 5:11.58 | 103388 | 126770
10 | 28:10.21 | 7:43.50 | 126771 | 161545

Range status and errors

Selected range

Filename C:\Jobforaworm\Rolo Tomassi – Cosmology.wav

Peak level 100.0 %
Extraction speed 2.6 X
Range quality 100.0 %
Test CRC 643D5B58
Copy CRC 643D5B58
Copy OK

No errors occurred

AccurateRip summary

Track 1 accurately ripped (confidence 7) [1C1251CF] (AR v2)
Track 2 accurately ripped (confidence 7) [055FB6EF] (AR v2)
Track 3 accurately ripped (confidence 7) [86581A69] (AR v2)
Track 4 accurately ripped (confidence 7) [7E4101AE] (AR v2)
Track 5 accurately ripped (confidence 7) [7221D3A8] (AR v2)
Track 6 accurately ripped (confidence 7) [E322124A] (AR v2)
Track 7 accurately ripped (confidence 7) [088F12A4] (AR v2)
Track 8 accurately ripped (confidence 7) [5C8D3505] (AR v2)
Track 9 accurately ripped (confidence 7) [A6382960] (AR v2)
Track 10 accurately ripped (confidence 7) [58E64754] (AR v2)

All tracks accurately ripped

End of status report

—- CUETools DB Plugin V2.1.6

[CTDB TOCID: GfwvnlCOyO5._8RXbpLqrz78CuA-] found
Submit result: GfwvnlCOyO5._8RXbpLqrz78CuA- has been confirmed
Track | CTDB Status
1 | (11/11) Accurately ripped
2 | (11/11) Accurately ripped
3 | (11/11) Accurately ripped
4 | (11/11) Accurately ripped
5 | (11/11) Accurately ripped
6 | (11/11) Accurately ripped
7 | (11/11) Accurately ripped
8 | (11/11) Accurately ripped
9 | (11/11) Accurately ripped
10 | (11/11) Accurately ripped

==== Log checksum C952FE04A97D03657420261558FDAD5B63543C21BC192C22C4BE35144355E56A ====

REM GENRE Mathcore
REM DATE 2010
REM DISCID 7D08690A
REM COMMENT “Hassle Records, HOFF089CDA”
PERFORMER “Rolo Tomassi”
TITLE “Cosmology”
FILE “Rolo Tomassi – Cosmology.flac” WAVE
TRACK 01 AUDIO
TITLE “Katzenklavier”
PERFORMER “Rolo Tomassi”
INDEX 01 00:00:00
TRACK 02 AUDIO
TITLE “Agamemnon”
PERFORMER “Rolo Tomassi”
INDEX 01 01:04:15
TRACK 03 AUDIO
TITLE “House House Casanova”
PERFORMER “Rolo Tomassi”
INDEX 01 02:44:60
TRACK 04 AUDIO
TITLE “Party Wounds”
PERFORMER “Rolo Tomassi”
INDEX 01 03:59:65
TRACK 05 AUDIO
TITLE “Unromance”
PERFORMER “Rolo Tomassi”
INDEX 01 07:14:16
TRACK 06 AUDIO
TITLE “French Motel”
PERFORMER “Rolo Tomassi”
INDEX 01 11:17:23
TRACK 07 AUDIO
TITLE “Kasia”
PERFORMER “Rolo Tomassi”
INDEX 01 14:09:30
TRACK 08 AUDIO
TITLE “Sakia ”
PERFORMER “Rolo Tomassi”
INDEX 01 19:40:72
TRACK 09 AUDIO
TITLE “Tongue in Chic”
PERFORMER “Rolo Tomassi”
INDEX 01 22:58:38
TRACK 10 AUDIO
TITLE “Cosmology”
PERFORMER “Rolo Tomassi”
INDEX 01 28:10:21


Spread the Download

Leave a Reply

Your email address will not be published. Required fields are marked *

Enter the text from the image below
 

This site uses Akismet to reduce spam. Learn how your comment data is processed.