Rolo Tomassi – Astraea




[Total: 0    Average: 0/5]

Artist: Rolo Tomassi
Year: 2012
Genre: Metal
Notes: Discogs
Add. Notes:
Cover incl.: Yes
Encoder: FLAC
Bitrate: ~1000 kBit/s (44.1 kHz/16 Bit/s)
Log & Cue incl.: Yes
Size: 439,08 MB
Password: “slam” (without ” “)


All Downloads/Hosters are compatible

Download 1
Share-online.biz
KatFile.com
Rapidgator.net
Download 2
Share-online.biz
KatFile.com
Rapidgator.net

Tracklist:

1 - Howl - 04:38
2 - Ex Luna Scientia - 03:58
3 - The Scales Of Balance - 03:33
4 - Remancer - 01:48
5 - Empiresk - 04:00
6 - Prelude II (Echolalia) - 01:03
7 - Echopraxia - 03:15
8 - Gloam - 03:31
9 - Illunis - 04:51
10 - Illuminare - 07:36

EAC-Log, CUE-Sheed & NFO:

Click to open spoiler
Exact Audio Copy V1.3 from 2. September 2016

EAC extraction logfile from 1. October 2017, 11:36

Rolo Tomassi / Astraea

Used drive : ASUS DRW-24F1ST a Adapter: 1 ID: 0

Read mode : Secure
Utilize accurate stream : Yes
Defeat audio cache : Yes
Make use of C2 pointers : No

Read offset correction : 6
Overread into Lead-In and Lead-Out : No
Fill up missing offset samples with silence : Yes
Delete leading and trailing silent blocks : No
Null samples used in CRC calculations : Yes
Used interface : Native Win32 interface for Win NT & 2000

Used output format : Internal WAV Routines
Sample format : 44.100 Hz; 16 Bit; Stereo

TOC of the extracted CD

Track | Start | Length | Start sector | End sector
———————————————————
1 | 0:00.00 | 4:38.69 | 0 | 20918
2 | 4:38.69 | 3:58.15 | 20919 | 38783
3 | 8:37.09 | 3:33.67 | 38784 | 54825
4 | 12:11.01 | 1:48.66 | 54826 | 62991
5 | 13:59.67 | 4:00.09 | 62992 | 81000
6 | 18:00.01 | 1:03.28 | 81001 | 85753
7 | 19:03.29 | 3:15.48 | 85754 | 100426
8 | 22:19.02 | 3:31.59 | 100427 | 116310
9 | 25:50.61 | 4:51.29 | 116311 | 138164
10 | 30:42.15 | 7:36.31 | 138165 | 172395

Range status and errors

Selected range

Filename C:\Jobforaworm\Rolo Tomassi – Astraea.wav

Peak level 100.0 %
Extraction speed 2.7 X
Range quality 100.0 %
Test CRC B9AF4177
Copy CRC B9AF4177
Copy OK

No errors occurred

AccurateRip summary

Track 1 accurately ripped (confidence 9) [7644D316] (AR v2)
Track 2 accurately ripped (confidence 9) [980E30A7] (AR v2)
Track 3 accurately ripped (confidence 9) [325E63EC] (AR v2)
Track 4 accurately ripped (confidence 9) [CDC36252] (AR v2)
Track 5 accurately ripped (confidence 9) [155FB4D7] (AR v2)
Track 6 accurately ripped (confidence 9) [EDEF4289] (AR v2)
Track 7 accurately ripped (confidence 9) [1ED09744] (AR v2)
Track 8 accurately ripped (confidence 9) [ACA4031B] (AR v2)
Track 9 accurately ripped (confidence 9) [BC19993B] (AR v2)
Track 10 accurately ripped (confidence 9) [69175CD5] (AR v2)

All tracks accurately ripped

End of status report

—- CUETools DB Plugin V2.1.6

[CTDB TOCID: ZzQJ048_4vbnmbjPqbV7Nq1byQU-] found
Submit result: ZzQJ048_4vbnmbjPqbV7Nq1byQU- has been confirmed
Track | CTDB Status
1 | (8/8) Accurately ripped
2 | (8/8) Accurately ripped
3 | (8/8) Accurately ripped
4 | (8/8) Accurately ripped
5 | (8/8) Accurately ripped
6 | (8/8) Accurately ripped
7 | (8/8) Accurately ripped
8 | (8/8) Accurately ripped
9 | (8/8) Accurately ripped
10 | (8/8) Accurately ripped

==== Log checksum 8007049479B9F108770CB4CD4E98675CEEF5C06CC47FD14F424FC16EB83D4FA7 ====

REM GENRE Mathcore
REM DATE 2012
REM DISCID 7208FA0A
REM COMMENT “Destination Moon, DMOO6CD”
PERFORMER “Rolo Tomassi”
TITLE “Astraea”
FILE “Rolo Tomassi – Astraea.flac” WAVE
TRACK 01 AUDIO
TITLE “Howl”
PERFORMER “Rolo Tomassi”
INDEX 01 00:00:00
TRACK 02 AUDIO
TITLE “Ex Luna Scientia”
PERFORMER “Rolo Tomassi”
INDEX 01 04:38:69
TRACK 03 AUDIO
TITLE “The Scales Of Balance”
PERFORMER “Rolo Tomassi”
INDEX 01 08:37:09
TRACK 04 AUDIO
TITLE “Remancer”
PERFORMER “Rolo Tomassi”
INDEX 01 12:11:01
TRACK 05 AUDIO
TITLE “Empiresk”
PERFORMER “Rolo Tomassi”
INDEX 01 13:59:67
TRACK 06 AUDIO
TITLE “Prelude II (Echolalia)”
PERFORMER “Rolo Tomassi”
INDEX 01 18:00:01
TRACK 07 AUDIO
TITLE “Echopraxia”
PERFORMER “Rolo Tomassi”
INDEX 01 19:03:29
TRACK 08 AUDIO
TITLE “Gloam”
PERFORMER “Rolo Tomassi”
INDEX 01 22:19:02
TRACK 09 AUDIO
TITLE “Illunis”
PERFORMER “Rolo Tomassi”
INDEX 01 25:50:61
TRACK 10 AUDIO
TITLE “Illuminare”
PERFORMER “Rolo Tomassi”
INDEX 01 30:42:15


Spread the Download

Leave a Reply

Your email address will not be published. Required fields are marked *

Enter the text from the image below
 

This site uses Akismet to reduce spam. Learn how your comment data is processed.