Rod Stewart – When We Were The New Boys (Japanese Edition)




Artist: Rod Stewart
Year: 1998
Genre: Rock
Notes: Discogs
Add. Notes: Japanese Edition
Cover incl.: Yes
Encoder: FLAC
Bitrate: ~1000 kBit/s (44.1 kHz/16 Bit/s)
Log & Cue incl.: Yes
Size: 329,9 MB
Password: “slam” (without ” “)


All Downloads/Hosters are compatible

Download 1
KatFile.com
Turbobit.net
Rapidgator.net
Download 2
KatFile.com
Turbobit.net
Rapidgator.net

Tracklist:

1 - Cigarettes And Alcohol - 4:03
2 - Ooh La La - 4:15
3 - Rocks - 4:45
4 - Superstar - 4:21
5 - Secret Heart - 4:07
6 - Hotel Chambermaid - 3:49
7 - Shelly My Love - 3:38
8 - When We Were The New Boys - 4:39
9 - Weak - 4:37
10 - What Do You Want Me To Do? - 3:36
Japan Bonus Track:
11 - Careless With Our Love 

EAC-Log, CUE-Sheed & NFO:

Click to open spoiler
Exact Audio Copy V1.3 from 2. September 2016

EAC extraction logfile from 11. October 2017, 23:14

Rod Stewart / When We Were The New Boys

Used drive : Optiarc DVD RW AD-7260S Adapter: 1 ID: 2

Read mode : Secure
Utilize accurate stream : Yes
Defeat audio cache : Yes
Make use of C2 pointers : No

Read offset correction : 48
Overread into Lead-In and Lead-Out : No
Fill up missing offset samples with silence : Yes
Delete leading and trailing silent blocks : No
Null samples used in CRC calculations : Yes
Used interface : Native Win32 interface for Win NT & 2000

Used output format : User Defined Encoder
Selected bitrate : 128 kBit/s
Quality : High
Add ID3 tag : No
Command line compressor : C:\Program Files\Exact Audio Copy\Flac\flac.exe
Additional command line options : -V -8 -T “Date=%year%” -T “Genre=%genre%” %source%

TOC of the extracted CD

Track | Start | Length | Start sector | End sector
———————————————————
1 | 0:00.00 | 4:03.30 | 0 | 18254
2 | 4:03.30 | 4:16.05 | 18255 | 37459
3 | 8:19.35 | 4:45.17 | 37460 | 58851
4 | 13:04.52 | 4:20.73 | 58852 | 78424
5 | 17:25.50 | 4:07.30 | 78425 | 96979
6 | 21:33.05 | 3:49.45 | 96980 | 114199
7 | 25:22.50 | 3:38.05 | 114200 | 130554
8 | 29:00.55 | 4:40.45 | 130555 | 151599
9 | 33:41.25 | 4:37.20 | 151600 | 172394
10 | 38:18.45 | 3:35.72 | 172395 | 188591
11 | 41:54.42 | 4:27.40 | 188592 | 208656

Range status and errors

Selected range

Filename M:\Slava Z\WWWTNB 1998\Rod Stewart – When We Were The New Boys.wav

Peak level 100.0 %
Extraction speed 3.3 X
Range quality 100.0 %
Test CRC 5696E665
Copy CRC 5696E665
Copy OK

No errors occurred

AccurateRip summary

Track 1 accurately ripped (confidence 6) [DCEB7989] (AR v2)
Track 2 accurately ripped (confidence 6) [0B338250] (AR v2)
Track 3 accurately ripped (confidence 6) [44EE4F6E] (AR v2)
Track 4 accurately ripped (confidence 6) [2A1FD7A1] (AR v2)
Track 5 accurately ripped (confidence 6) [0969D820] (AR v2)
Track 6 accurately ripped (confidence 6) [DD13F42E] (AR v2)
Track 7 accurately ripped (confidence 6) [E7826A5D] (AR v2)
Track 8 accurately ripped (confidence 6) [D575FF02] (AR v2)
Track 9 accurately ripped (confidence 6) [A8D3AEC4] (AR v2)
Track 10 accurately ripped (confidence 6) [83F58E65] (AR v2)
Track 11 accurately ripped (confidence 6) [71F4FE99] (AR v2)

All tracks accurately ripped

End of status report

—- CUETools DB Plugin V2.1.6

[CTDB TOCID: XeNLUtKE9AURTOonlNUBmDdHUXs-] found
Submit result: XeNLUtKE9AURTOonlNUBmDdHUXs- has been confirmed
Track | CTDB Status
1 | (15/15) Accurately ripped
2 | (15/15) Accurately ripped
3 | (15/15) Accurately ripped
4 | (15/15) Accurately ripped
5 | (15/15) Accurately ripped
6 | (15/15) Accurately ripped
7 | (15/15) Accurately ripped
8 | (15/15) Accurately ripped
9 | (15/15) Accurately ripped
10 | (15/15) Accurately ripped
11 | (14/15) Accurately ripped, or (1/15) differs in 4910 samples @04:27:17-04:27:22

==== Log checksum E8F6DF9000817C1FFF1E3E839746F524098ACEBD1B705B33DA7F2F93EDEE5F3A ====

REM GENRE Rock
REM DATE 1998
REM DISCID 790ADE0B
REM COMMENT “ExactAudioCopy v1.3”
PERFORMER “Rod Stewart”
TITLE “When We Were The New Boys”
REM COMPOSER “”
FILE “Rod Stewart – When We Were The New Boys.flac” WAVE
TRACK 01 AUDIO
TITLE “Cigarettes And Alcohol”
PERFORMER “Rod Stewart”
REM COMPOSER “”
INDEX 01 00:00:00
TRACK 02 AUDIO
TITLE “Ooh La La”
PERFORMER “Rod Stewart”
REM COMPOSER “”
INDEX 00 04:03:07
INDEX 01 04:03:30
TRACK 03 AUDIO
TITLE “Rocks”
PERFORMER “Rod Stewart”
REM COMPOSER “”
INDEX 00 08:19:10
INDEX 01 08:19:35
TRACK 04 AUDIO
TITLE “Superstar”
PERFORMER “Rod Stewart”
REM COMPOSER “”
INDEX 01 13:04:52
TRACK 05 AUDIO
TITLE “Secret Heart”
PERFORMER “Rod Stewart”
REM COMPOSER “”
INDEX 01 17:25:50
TRACK 06 AUDIO
TITLE “Hotel Chambermaid”
PERFORMER “Rod Stewart”
REM COMPOSER “”
INDEX 01 21:33:05
TRACK 07 AUDIO
TITLE “Shelly My Love”
PERFORMER “Rod Stewart”
REM COMPOSER “”
INDEX 00 25:21:35
INDEX 01 25:22:50
TRACK 08 AUDIO
TITLE “When We Were The New Boys”
PERFORMER “Rod Stewart”
REM COMPOSER “”
INDEX 00 28:58:72
INDEX 01 29:00:55
TRACK 09 AUDIO
TITLE “Weak”
PERFORMER “Rod Stewart”
REM COMPOSER “”
INDEX 01 33:41:25
TRACK 10 AUDIO
TITLE “What Do You Want Me To Do?”
PERFORMER “Rod Stewart”
REM COMPOSER “”
INDEX 01 38:18:45
TRACK 11 AUDIO
TITLE “Careless With Our Love”
PERFORMER “Rod Stewart”
REM COMPOSER “”
INDEX 00 41:54:00
INDEX 01 41:54:42


Leave a Reply

Your email address will not be published. Required fields are marked *

Enter the text from the image below
 

This site uses Akismet to reduce spam. Learn how your comment data is processed.