Rod Stewart – Vagabond Heart




No Cover available

Artist: Rod Stewart
Year: 1991
Genre: Rock
Notes: Discogs
Add. Notes:
Watch Songs on: YouTube
Cover incl.: Yes
Encoder: FLAC
Bitrate: ~900 kBit/s (44.1 kHz/16 Bit/s)
Log & Cue incl.: Yes/Yes
Size: 379,72 MB
Password: “slam” (without ” “)


All Downloads/Hosters are compatible

Download 1
KatFile.com
Turbobit.net
Rapidgator.net
FileFactory.com
Download 2
KatFile.com
Turbobit.net
Rapidgator.net
FileFactory.com

Tracklist:

1 Rhythm Of My Heart 4:15
2 Rebel Heart 4:10
3 Broken Arrow 4:27
4 It Takes Two 4:14
5 When A Man's In Love 5:34
6 You Are Everything 4:10
7 The Motown Song 4:00
8 Go Out Dancing 4:21
9 No Holding Back 5:47
10 Have I Told You Lately 4:02
11 Moment Of Glory 4:47
12 If Only 4:56

EAC-Log, CUE-Sheed & NFO:

Click to open spoiler
Exact Audio Copy V1.1 from 23. June 2015

EAC extraction logfile from 19. September 2015, 21:52

Rod Stewart / Vagabond Heart

Used drive : PIONEER DVD-RW DVR-111D Adapter: 1 ID: 0

Read mode : Secure
Utilize accurate stream : Yes
Defeat audio cache : Yes
Make use of C2 pointers : No

Read offset correction : 48
Overread into Lead-In and Lead-Out : No
Fill up missing offset samples with silence : Yes
Delete leading and trailing silent blocks : No
Null samples used in CRC calculations : Yes
Used interface : Native Win32 interface for Win NT & 2000

Used output format : User Defined Encoder
Selected bitrate : 768 kBit/s
Quality : High
Add ID3 tag : No
Command line compressor : C:\Program Files\Exact Audio Copy\Flac\flac.exe
Additional command line options : -V -8 %source%

TOC of the extracted CD

Track | Start | Length | Start sector | End sector
———————————————————
1 | 0:00.32 | 4:14.65 | 32 | 19146
2 | 4:15.22 | 4:10.28 | 19147 | 37924
3 | 8:25.50 | 4:26.37 | 37925 | 57911
4 | 12:52.12 | 4:14.38 | 57912 | 76999
5 | 17:06.50 | 5:34.05 | 77000 | 102054
6 | 22:40.55 | 4:09.37 | 102055 | 120766
7 | 26:50.17 | 4:00.30 | 120767 | 138796
8 | 30:50.47 | 4:20.33 | 138797 | 158329
9 | 35:11.05 | 5:47.35 | 158330 | 184389
10 | 40:58.40 | 4:01.37 | 184390 | 202501
11 | 45:00.02 | 4:47.08 | 202502 | 224034
12 | 49:47.10 | 4:56.50 | 224035 | 246284

Range status and errors

Selected range

Filename D:\rs\vagabond heart\Rod Stewart – Vagabond Heart.wav

Peak level 100.0 %
Extraction speed 4.5 X
Range quality 99.9 %
Test CRC ADBC2A44
Copy CRC ADBC2A44
Copy OK

No errors occurred

AccurateRip summary

Track 1 accurately ripped (confidence 3) [8365C397] (AR v2)
Track 2 accurately ripped (confidence 3) [98629F92] (AR v2)
Track 3 accurately ripped (confidence 3) [17E837E6] (AR v2)
Track 4 accurately ripped (confidence 3) [8595F3B0] (AR v2)
Track 5 accurately ripped (confidence 3) [A4D88DE3] (AR v2)
Track 6 accurately ripped (confidence 3) [B58876F9] (AR v2)
Track 7 accurately ripped (confidence 3) [8D217C4C] (AR v2)
Track 8 accurately ripped (confidence 3) [68AA6921] (AR v2)
Track 9 accurately ripped (confidence 3) [FA24811D] (AR v2)
Track 10 accurately ripped (confidence 3) [7EE7C07E] (AR v2)
Track 11 accurately ripped (confidence 3) [B5976A07] (AR v2)
Track 12 accurately ripped (confidence 3) [E4CDA75C] (AR v2)

All tracks accurately ripped

End of status report

—- CUETools DB Plugin V2.1.6

[CTDB TOCID: tPs3ws2Q2mxI3DCZZoEwWA01sW4-] found
Submit result: tPs3ws2Q2mxI3DCZZoEwWA01sW4- has been confirmed
Track | CTDB Status
1 | (1/1) Accurately ripped
2 | (1/1) Accurately ripped
3 | (1/1) Accurately ripped
4 | (1/1) Accurately ripped
5 | (1/1) Accurately ripped
6 | (1/1) Accurately ripped
7 | (1/1) Accurately ripped
8 | (1/1) Accurately ripped
9 | (1/1) Accurately ripped
10 | (1/1) Accurately ripped
11 | (1/1) Accurately ripped
12 | (1/1) Accurately ripped

==== Log checksum E99901C5415B49EEE1F76183378273B9CD7CD115771F71C25259E8D3602CD6C6 ====

REM GENRE Pop
REM DATE 1991
REM DISCID 990CD30C
REM COMMENT “ExactAudioCopy v1.1”
PERFORMER “Rod Stewart”
TITLE “Vagabond Heart”
FILE “Rod Stewart – Vagabond Heart.flac” WAVE
TRACK 01 AUDIO
TITLE “Rhythm Of My Heart”
PERFORMER “Rod Stewart”
INDEX 00 00:00:00
INDEX 01 00:00:32
TRACK 02 AUDIO
TITLE “Rebel Heart”
PERFORMER “Rod Stewart”
INDEX 00 04:13:32
INDEX 01 04:15:22
TRACK 03 AUDIO
TITLE “Broken Arrow”
PERFORMER “Rod Stewart”
INDEX 00 08:22:70
INDEX 01 08:25:50
TRACK 04 AUDIO
TITLE “It Takes Two”
PERFORMER “Rod Stewart”
INDEX 00 12:49:17
INDEX 01 12:52:12
TRACK 05 AUDIO
TITLE “When A Man’s In Love”
PERFORMER “Rod Stewart”
INDEX 00 17:05:10
INDEX 01 17:06:50
TRACK 06 AUDIO
TITLE “You Are Everything”
PERFORMER “Rod Stewart”
INDEX 00 22:37:62
INDEX 01 22:40:55
TRACK 07 AUDIO
TITLE “The Motown Song”
PERFORMER “Rod Stewart”
INDEX 00 26:46:70
INDEX 01 26:50:17
TRACK 08 AUDIO
TITLE “Go Out Dancing”
PERFORMER “Rod Stewart”
INDEX 00 30:48:15
INDEX 01 30:50:47
TRACK 09 AUDIO
TITLE “No Holding Back”
PERFORMER “Rod Stewart”
INDEX 00 35:09:60
INDEX 01 35:11:05
TRACK 10 AUDIO
TITLE “Have I Told You Lately”
PERFORMER “Rod Stewart”
INDEX 00 40:55:00
INDEX 01 40:58:40
TRACK 11 AUDIO
TITLE “Moment Of Glory”
PERFORMER “Rod Stewart”
INDEX 00 44:57:22
INDEX 01 45:00:02
TRACK 12 AUDIO
TITLE “If Only”
PERFORMER “Rod Stewart”
INDEX 00 49:44:05
INDEX 01 49:47:10


Leave a Reply

Your email address will not be published. Required fields are marked *

This site uses Akismet to reduce spam. Learn how your comment data is processed.