Rod Stewart – Vagabond Heart (Japanese Edition)




Artist: Rod Stewart
Year: 1991
Genre: Rock
Notes: Discogs
Add. Notes: Japanese Edition
Cover incl.: Yes
Encoder: FLAC
Bitrate: ~900 kBit/s (44.1 kHz/16 Bit/s)
Log & Cue incl.: Yes
Size: 398 MB
Password: “slam” (without ” “)


All Downloads/Hosters are compatible

Download 1
KatFile.com
Turbobit.net
Rapidgator.net
Download 2
KatFile.com
Turbobit.net
Rapidgator.net

Tracklist:

1. Rhythm Of My Heart
2. Rebel Heart
3. Broken Arrow
4. It Takes Two
5. When A Man's In Love
6. You Are Everything
7. The Motown Song
8. Go Out Dancing
9. No Holding Back
10. Have I Told You Lately
11. Moment Of Glory
12. Downtown Train
13. If Only

EAC-Log, CUE-Sheed & NFO:

Click to open spoiler
Exact Audio Copy V1.3 from 2. September 2016

EAC extraction logfile from 12. October 2017, 1:51

Stewart, Rod / Vagabond heart

Used drive : Optiarc DVD RW AD-7260S Adapter: 1 ID: 2

Read mode : Secure
Utilize accurate stream : Yes
Defeat audio cache : Yes
Make use of C2 pointers : No

Read offset correction : 48
Overread into Lead-In and Lead-Out : No
Fill up missing offset samples with silence : Yes
Delete leading and trailing silent blocks : No
Null samples used in CRC calculations : Yes
Used interface : Native Win32 interface for Win NT & 2000

Used output format : User Defined Encoder
Selected bitrate : 128 kBit/s
Quality : High
Add ID3 tag : No
Command line compressor : C:\Program Files\Exact Audio Copy\Flac\flac.exe
Additional command line options : -V -8 -T “Date=%year%” -T “Genre=%genre%” %source%

TOC of the extracted CD

Track | Start | Length | Start sector | End sector
———————————————————
1 | 0:00.00 | 4:15.27 | 0 | 19151
2 | 4:15.27 | 4:10.33 | 19152 | 37934
3 | 8:25.60 | 4:26.42 | 37935 | 57926
4 | 12:52.27 | 4:14.33 | 57927 | 77009
5 | 17:06.60 | 5:34.02 | 77010 | 102061
6 | 22:40.62 | 4:09.40 | 102062 | 120776
7 | 26:50.27 | 4:00.25 | 120777 | 138801
8 | 30:50.52 | 4:20.43 | 138802 | 158344
9 | 35:11.20 | 5:47.30 | 158345 | 184399
10 | 40:58.50 | 4:01.37 | 184400 | 202511
11 | 45:00.12 | 4:47.48 | 202512 | 224084
12 | 49:47.60 | 4:40.42 | 224085 | 245126
13 | 54:28.27 | 4:57.05 | 245127 | 267406

Range status and errors

Selected range

Filename M:\Slava Z\VH\Stewart, Rod – Vagabond heart.wav

Peak level 100.0 %
Extraction speed 3.3 X
Range quality 100.0 %
Test CRC 1F6D78E8
Copy CRC 1F6D78E8
Copy OK

No errors occurred

AccurateRip summary

Track 1 accurately ripped (confidence 5) [F4FA0303] (AR v2)
Track 2 accurately ripped (confidence 6) [ACCD070D] (AR v2)
Track 3 accurately ripped (confidence 5) [0E53C862] (AR v2)
Track 4 accurately ripped (confidence 6) [AB0E81D8] (AR v2)
Track 5 accurately ripped (confidence 6) [70F263B8] (AR v2)
Track 6 accurately ripped (confidence 6) [154D2B80] (AR v2)
Track 7 accurately ripped (confidence 6) [27756088] (AR v2)
Track 8 accurately ripped (confidence 6) [6CCB2468] (AR v2)
Track 9 accurately ripped (confidence 5) [D1E3837B] (AR v2)
Track 10 accurately ripped (confidence 5) [8B41009C] (AR v2)
Track 11 accurately ripped (confidence 5) [50763E76] (AR v2)
Track 12 accurately ripped (confidence 5) [B701C17C] (AR v2)
Track 13 accurately ripped (confidence 6) [A42413D4] (AR v2)

All tracks accurately ripped

End of status report

—- CUETools DB Plugin V2.1.6

[CTDB TOCID: L5iwW5WrWY2oa_Ot2CO2f30sdFg-] found
Submit result: L5iwW5WrWY2oa_Ot2CO2f30sdFg- has been confirmed
Track | CTDB Status
1 | ( 9/10) Accurately ripped
2 | ( 9/10) Accurately ripped
3 | ( 9/10) Accurately ripped
4 | ( 9/10) Accurately ripped
5 | ( 9/10) Accurately ripped
6 | ( 9/10) Accurately ripped
7 | ( 9/10) Accurately ripped
8 | ( 9/10) Accurately ripped
9 | ( 9/10) Accurately ripped
10 | ( 9/10) Accurately ripped
11 | ( 9/10) Accurately ripped
12 | ( 8/10) Accurately ripped
13 | ( 8/10) Accurately ripped

==== Log checksum 37D698FB2607945BE97C900A7F5177A2FE07CE98C017C36A37C09014ADF6D0EB ====

REM GENRE Rock
REM DATE 1991
REM DISCID A50DED0D
REM COMMENT “ExactAudioCopy v1.3”
PERFORMER “Rod Stewart”
TITLE “Vagabond Heart”
REM COMPOSER “”
FILE “Rod Stewart – Vagabond Heart.flac” WAVE
TRACK 01 AUDIO
TITLE “Rhythm Of My Heart”
PERFORMER “Rod Stewart”
REM COMPOSER “”
INDEX 01 00:00:00
TRACK 02 AUDIO
TITLE “Rebel Heart”
PERFORMER “Rod Stewart”
REM COMPOSER “”
INDEX 00 04:13:65
INDEX 01 04:15:27
TRACK 03 AUDIO
TITLE “Broken Arrow”
PERFORMER “Rod Stewart”
REM COMPOSER “”
INDEX 00 08:23:10
INDEX 01 08:25:60
TRACK 04 AUDIO
TITLE “It Takes Two (Duet With Tina Turner)”
PERFORMER “Rod Stewart”
REM COMPOSER “”
INDEX 00 12:49:40
INDEX 01 12:52:27
TRACK 05 AUDIO
TITLE “When A Man’s In Love”
PERFORMER “Rod Stewart”
REM COMPOSER “”
INDEX 00 17:05:35
INDEX 01 17:06:60
TRACK 06 AUDIO
TITLE “You Are Tverything”
PERFORMER “Rod Stewart”
REM COMPOSER “”
INDEX 00 22:37:72
INDEX 01 22:40:62
TRACK 07 AUDIO
TITLE “The Motown Song”
PERFORMER “Rod Stewart”
REM COMPOSER “”
INDEX 00 26:47:15
INDEX 01 26:50:27
TRACK 08 AUDIO
TITLE “Go Out Dancing”
PERFORMER “Rod Stewart”
REM COMPOSER “”
INDEX 00 30:48:30
INDEX 01 30:50:52
TRACK 09 AUDIO
TITLE “No Holding Back”
PERFORMER “Rod Stewart”
REM COMPOSER “”
INDEX 00 35:10:15
INDEX 01 35:11:20
TRACK 10 AUDIO
TITLE “Have I Told You Lately”
PERFORMER “Rod Stewart”
REM COMPOSER “”
INDEX 00 40:54:67
INDEX 01 40:58:50
TRACK 11 AUDIO
TITLE “Moment Of Glory”
PERFORMER “Rod Stewart”
REM COMPOSER “”
INDEX 00 44:57:57
INDEX 01 45:00:12
TRACK 12 AUDIO
TITLE “Downtown Train”
PERFORMER “Rod Stewart”
REM COMPOSER “”
INDEX 00 49:44:05
INDEX 01 49:47:60
TRACK 13 AUDIO
TITLE “If Only”
PERFORMER “Rod Stewart”
REM COMPOSER “”
INDEX 00 54:25:55
INDEX 01 54:28:27


Leave a Reply

Your email address will not be published. Required fields are marked *

Enter the text from the image below
 

This site uses Akismet to reduce spam. Learn how your comment data is processed.