Rod Stewart – Tonight I’m Yours




No Cover available

Artist: Rod Stewart
Year: 1981
Genre: Rock
Notes: Discogs
Add. Notes:
Watch Songs on: YouTube
Cover incl.: Yes
Encoder: FLAC
Bitrate: ~900 kBit/s (44.1 kHz/16 Bit/s)
Log & Cue incl.: Yes/Yes
Size: 474,2 MB
Password: “slam” (without ” “)


All Downloads/Hosters are compatible

Download 1
KatFile.com
Turbobit.net
Rapidgator.net
FileFactory.com
Download 2
KatFile.com
Turbobit.net
Rapidgator.net
FileFactory.com

Tracklist:

1 Tonight I'm Yours (Don't Hurt Me) 4:09
2 How Long 4:12
3 Tora, Tora, Tora (Out With The Boys) 4:29
4 Tear It Up 2:29
5 Only A Boy 4:09
6 Just Like A Woman 3:55
7 Jealous 4:30
8 Sonny 4:01
9 Young Turks 4:56
10 Never Give Up On A Dream 4:20

EAC-Log, CUE-Sheed & NFO:

Click to open spoiler
Exact Audio Copy V1.0 beta 3 from 29. August 2011

EAC extraction logfile from 25. August 2015, 23:29

Rod Stewart / Tonight I’m Yours (3602-2)

Used drive : SONY CD-RW CRX210E1 Adapter: 0 ID: 1

Read mode : Secure
Utilize accurate stream : Yes
Defeat audio cache : Yes
Make use of C2 pointers : No

Read offset correction : 6
Overread into Lead-In and Lead-Out : No
Fill up missing offset samples with silence : Yes
Delete leading and trailing silent blocks : No
Null samples used in CRC calculations : Yes
Used interface : Native Win32 interface for Win NT & 2000

Used output format : Internal WAV Routines
Sample format : 44.100 Hz; 16 Bit; Stereo

TOC of the extracted CD

Track | Start | Length | Start sector | End sector
———————————————————
1 | 0:00.33 | 4:11.47 | 33 | 18904
2 | 4:12.05 | 4:14.15 | 18905 | 37969
3 | 8:26.20 | 4:31.73 | 37970 | 58367
4 | 12:58.18 | 2:28.60 | 58368 | 69527
5 | 15:27.03 | 4:10.50 | 69528 | 88327
6 | 19:37.53 | 3:57.55 | 88328 | 106157
7 | 23:35.33 | 4:33.12 | 106158 | 126644
8 | 28:08.45 | 4:04.00 | 126645 | 144944
9 | 32:12.45 | 5:03.25 | 144945 | 167694
10 | 37:15.70 | 4:21.48 | 167695 | 187317

Range status and errors

Selected range

Filename D:\Ready.zp\Rod Stewart – Tonight I’m Yours (3602-2).wav

Peak level 97.2 %
Extraction speed 14.2 X
Range quality 100.0 %
Test CRC C6FA346E
Copy CRC C6FA346E
Copy OK

No errors occurred

AccurateRip summary

Track 1 accurately ripped (confidence 4) [D45E8EAF] (AR v2)
Track 2 accurately ripped (confidence 4) [3054F99A] (AR v2)
Track 3 accurately ripped (confidence 4) [B84709DC] (AR v2)
Track 4 accurately ripped (confidence 4) [3A8F92D3] (AR v2)
Track 5 accurately ripped (confidence 4) [CCCF9915] (AR v2)
Track 6 accurately ripped (confidence 4) [789899C6] (AR v2)
Track 7 accurately ripped (confidence 4) [538A75AF] (AR v2)
Track 8 accurately ripped (confidence 4) [4394A759] (AR v2)
Track 9 accurately ripped (confidence 4) [5C91A94A] (AR v2)
Track 10 accurately ripped (confidence 4) [6F239B19] (AR v2)

All tracks accurately ripped

End of status report

==== Log checksum C2C0C1B2A26BA4DCB630C943FAFD3AB3E8C2E33396886C13C46D6DFC5DC928E1 ====

REM GENRE Rock
REM DATE 1981
REM DISCID 8B09C10A
REM COMMENT “ExactAudioCopy v1.0b3”
PERFORMER “Rod Stewart”
TITLE “Tonight I’m Yours (3602-2)”
FILE “Rod Stewart – Tonight I’m Yours (3602-2).flac” WAVE
TRACK 01 AUDIO
TITLE “Tonight I’m Yours (Don’t Hurt Me)”
PERFORMER “Rod Stewart”
INDEX 00 00:00:00
INDEX 01 00:00:33
TRACK 02 AUDIO
TITLE “How Long”
PERFORMER “Rod Stewart”
INDEX 00 04:10:68
INDEX 01 04:12:05
TRACK 03 AUDIO
TITLE “Tora, Tora, Tora (Out With The Boys)”
PERFORMER “Rod Stewart”
INDEX 00 08:25:43
INDEX 01 08:26:20
TRACK 04 AUDIO
TITLE “Tear It Up”
PERFORMER “Rod Stewart”
INDEX 00 12:56:43
INDEX 01 12:58:18
TRACK 05 AUDIO
TITLE “Only A Boy”
PERFORMER “Rod Stewart”
INDEX 01 15:27:03
TRACK 06 AUDIO
TITLE “Just Like A Woman”
PERFORMER “Rod Stewart”
INDEX 00 19:35:53
INDEX 01 19:37:53
TRACK 07 AUDIO
TITLE “Jealous”
PERFORMER “Rod Stewart”
INDEX 00 23:34:48
INDEX 01 23:35:33
TRACK 08 AUDIO
TITLE “Sonny”
PERFORMER “Rod Stewart”
INDEX 00 28:07:58
INDEX 01 28:08:45
TRACK 09 AUDIO
TITLE “Young Turks”
PERFORMER “Rod Stewart”
INDEX 00 32:11:45
INDEX 01 32:12:45
TRACK 10 AUDIO
TITLE “Never Give Up On A Dream”
PERFORMER “Rod Stewart”
INDEX 00 37:15:05
INDEX 01 37:15:70


0

Publication author

offline 7 days

Chaos

3
Comments: 4Publics: 3565Registration: 02-02-2019
Spread the Download

Leave a Reply

Your email address will not be published. Required fields are marked *

Enter the text from the image below
 

This site uses Akismet to reduce spam. Learn how your comment data is processed.