Rod Stewart – Tonight I’m Yours (Japanese Edition)




No Cover available

Artist: Rod Stewart
Year: 1981/2009
Genre: Rock
Notes: Discogs
Add. Notes: Japanese Edition
Watch Songs on: YouTube
Cover incl.: Yes
Encoder: FLAC
Bitrate: ~1000 kBit/s (44.1 kHz/16 Bit/s)
Log & Cue incl.: Yes/Yes
Size: 307,3 MB
Password: “slam” (without ” “)


All Downloads/Hosters are compatible

Download 1
KatFile.com
Turbobit.net
Rapidgator.net
FileFactory.com
Download 2
KatFile.com
Turbobit.net
Rapidgator.net
FileFactory.com

Tracklist:

1 Tonight I'm Yours (Don't Hurt Me) 4:11
2 How Long 4:13
3 Tora, Tora, Tora (Out With The Boys) 4:30
4 Tear It Up 2:28
5 Only A Boy 4:09
6 Just Like A Woman 3:57
7 Jealous 4:32
8 Sonny 4:03
9 Young Turks 5:02
10 Never Give Up On A Dream 4:22

EAC-Log, CUE-Sheed & NFO:

Click to open spoiler
Exact Audio Copy V1.3 from 2. September 2016

EAC extraction logfile from 11. October 2017, 21:49

Rod Stewart / Tonight I’m Yours

Used drive : Optiarc DVD RW AD-7260S Adapter: 1 ID: 2

Read mode : Secure
Utilize accurate stream : Yes
Defeat audio cache : Yes
Make use of C2 pointers : No

Read offset correction : 48
Overread into Lead-In and Lead-Out : No
Fill up missing offset samples with silence : Yes
Delete leading and trailing silent blocks : No
Null samples used in CRC calculations : Yes
Used interface : Native Win32 interface for Win NT & 2000

Used output format : User Defined Encoder
Selected bitrate : 128 kBit/s
Quality : High
Add ID3 tag : No
Command line compressor : C:\Program Files\Exact Audio Copy\Flac\flac.exe
Additional command line options : -V -8 -T “Date=%year%” -T “Genre=%genre%” %source%

TOC of the extracted CD

Track | Start | Length | Start sector | End sector
———————————————————
1 | 0:00.00 | 4:12.20 | 0 | 18919
2 | 4:12.20 | 4:14.18 | 18920 | 37987
3 | 8:26.38 | 4:31.72 | 37988 | 58384
4 | 12:58.35 | 2:28.58 | 58385 | 69542
5 | 15:27.18 | 4:10.52 | 69543 | 88344
6 | 19:37.70 | 3:57.55 | 88345 | 106174
7 | 23:35.50 | 4:33.10 | 106175 | 126659
8 | 28:08.60 | 4:04.00 | 126660 | 144959
9 | 32:12.60 | 5:03.25 | 144960 | 167709
10 | 37:16.10 | 4:22.65 | 167710 | 187424

Range status and errors

Selected range

Filename M:\Slava Z\TIY 1981\Rod Stewart – Tonight I’m Yours.wav

Peak level 100.0 %
Extraction speed 3.1 X
Range quality 100.0 %
Test CRC CC719D1B
Copy CRC CC719D1B
Copy OK

No errors occurred

AccurateRip summary

Track 1 accurately ripped (confidence 3) [41175EB9] (AR v2)
Track 2 accurately ripped (confidence 3) [437C84F8] (AR v2)
Track 3 accurately ripped (confidence 3) [A74F59C6] (AR v2)
Track 4 accurately ripped (confidence 3) [BA59AA31] (AR v2)
Track 5 accurately ripped (confidence 3) [C38395FD] (AR v2)
Track 6 accurately ripped (confidence 3) [2491C568] (AR v2)
Track 7 accurately ripped (confidence 3) [2F2977DC] (AR v2)
Track 8 accurately ripped (confidence 3) [F9D6AE53] (AR v2)
Track 9 accurately ripped (confidence 3) [C293558A] (AR v2)
Track 10 accurately ripped (confidence 3) [130FAB87] (AR v2)

All tracks accurately ripped

End of status report

—- CUETools DB Plugin V2.1.6

[CTDB TOCID: 5iKADOCi6dhwKYNA8I8ZUg3SLv4-] found
Submit result: 5iKADOCi6dhwKYNA8I8ZUg3SLv4- has been confirmed
Track | CTDB Status
1 | (7/7) Accurately ripped
2 | (7/7) Accurately ripped
3 | (7/7) Accurately ripped
4 | (7/7) Accurately ripped
5 | (7/7) Accurately ripped
6 | (7/7) Accurately ripped
7 | (7/7) Accurately ripped
8 | (7/7) Accurately ripped
9 | (7/7) Accurately ripped
10 | (7/7) Accurately ripped

==== Log checksum 663157E19EDD3E22E2867A617D4D729742A61B59823A363987841D9130EBB27E ====

REM DISCID 8C09C30A
REM COMMENT “ExactAudioCopy v1.3”
PERFORMER “Rod Stewart”
TITLE “Tonight I’m Yours”
REM COMPOSER “”
FILE “Rod Stewart – Tonight I’m Yours.flac” WAVE
TRACK 01 AUDIO
TITLE “Tonight I’m Yours (Don’t Hurt Me)”
PERFORMER “Rod Stewart”
REM COMPOSER “”
INDEX 01 00:00:00
TRACK 02 AUDIO
TITLE “How Long”
PERFORMER “Rod Stewart”
REM COMPOSER “”
INDEX 00 04:11:48
INDEX 01 04:12:20
TRACK 03 AUDIO
TITLE “Tora, Tora, Tora (Out With The Boys)”
PERFORMER “Rod Stewart”
REM COMPOSER “”
INDEX 00 08:26:08
INDEX 01 08:26:38
TRACK 04 AUDIO
TITLE “Tear It Up”
PERFORMER “Rod Stewart”
REM COMPOSER “”
INDEX 00 12:57:15
INDEX 01 12:58:35
TRACK 05 AUDIO
TITLE “Only A Boy”
PERFORMER “Rod Stewart”
REM COMPOSER “”
INDEX 01 15:27:18
TRACK 06 AUDIO
TITLE “Just Like A Woman”
PERFORMER “Rod Stewart”
REM COMPOSER “”
INDEX 00 19:36:28
INDEX 01 19:37:70
TRACK 07 AUDIO
TITLE “Jealous”
PERFORMER “Rod Stewart”
REM COMPOSER “”
INDEX 00 23:35:15
INDEX 01 23:35:50
TRACK 08 AUDIO
TITLE “Sonny”
PERFORMER “Rod Stewart”
REM COMPOSER “”
INDEX 00 28:08:25
INDEX 01 28:08:60
TRACK 09 AUDIO
TITLE “Young Turks”
PERFORMER “Rod Stewart”
REM COMPOSER “”
INDEX 00 32:12:30
INDEX 01 32:12:60
TRACK 10 AUDIO
TITLE “Never Give Up On A Dream”
PERFORMER “Rod Stewart”
REM COMPOSER “”
INDEX 00 37:15:50
INDEX 01 37:16:10


Leave a Reply

Your email address will not be published. Required fields are marked *

This site uses Akismet to reduce spam. Learn how your comment data is processed.