Rod Stewart – Thanks For The Memory… The Great American Songbook Volume IV




[Total: 0    Average: 0/5]

Artist: Rod Stewart
Year: 2005
Genre: Rock
Notes: Discogs
Add. Notes:
Cover incl.: Yes
Encoder: FLAC
Bitrate: ~900 kBit/s (44.1 kHz/16 Bit/s)
Log & Cue incl.: Yes
Size: 311,4 MB
Password: “slam” (without ” “)


All Downloads/Hosters are compatible

Download 1
KatFile.com
Turbobit.net
FileFactory.com
Rapidgator.net
Download 2
KatFile.com
Turbobit.net
FileFactory.com
Rapidgator.net
Download 3
KatFile.com
Turbobit.net
FileFactory.com
Rapidgator.net

Tracklist:

1 I've Got A Crush On You 
2 Blue Skies 
3 I Wish You Love 
4 Makin' Whoopee 
5 Thanks For The Memory 
6 Nevertheless 
7 Long Ago And Far Away 
8 You Send Me 
9 My Funny Valentine 
10 I've Got My Love To Keep Me Warm 
11 Taking A Chance On Love 
12 Let's Fall In Love 
13 My One And Only Love

EAC-Log, CUE-Sheed & NFO:

Click to open spoiler
Exact Audio Copy V1.1 from 23. June 2015

EAC extraction logfile from 20. September 2015, 7:45

Rod Stewart / Thanks for the Memory – The Great American Songbook Volume IV

Used drive : PIONEER DVD-RW DVR-111D Adapter: 1 ID: 0

Read mode : Secure
Utilize accurate stream : Yes
Defeat audio cache : Yes
Make use of C2 pointers : No

Read offset correction : 48
Overread into Lead-In and Lead-Out : No
Fill up missing offset samples with silence : Yes
Delete leading and trailing silent blocks : No
Null samples used in CRC calculations : Yes
Used interface : Native Win32 interface for Win NT & 2000

Used output format : User Defined Encoder
Selected bitrate : 768 kBit/s
Quality : High
Add ID3 tag : No
Command line compressor : C:\Program Files\Exact Audio Copy\Flac\flac.exe
Additional command line options : -V -8 %source%

TOC of the extracted CD

Track | Start | Length | Start sector | End sector
———————————————————
1 | 0:00.00 | 3:08.55 | 0 | 14154
2 | 3:08.55 | 3:38.30 | 14155 | 30534
3 | 6:47.10 | 3:36.20 | 30535 | 46754
4 | 10:23.30 | 3:11.55 | 46755 | 61134
5 | 13:35.10 | 3:44.72 | 61135 | 78006
6 | 17:20.07 | 3:25.20 | 78007 | 93401
7 | 20:45.27 | 3:27.58 | 93402 | 108984
8 | 24:13.10 | 2:49.47 | 108985 | 121706
9 | 27:02.57 | 3:09.73 | 121707 | 135954
10 | 30:12.55 | 3:50.47 | 135955 | 153251
11 | 34:03.27 | 2:43.55 | 153252 | 165531
12 | 36:47.07 | 3:15.48 | 165532 | 180204
13 | 40:02.55 | 3:10.67 | 180205 | 194521

Range status and errors

Selected range

Filename D:\rs\thanks for the memory\Rod Stewart – Thanks for the Memory – The Great American Songbook Volume IV.wav

Peak level 98.8 %
Extraction speed 4.5 X
Range quality 100.0 %
Test CRC 3F5ED006
Copy CRC 3F5ED006
Copy OK

No errors occurred

AccurateRip summary

Track 1 accurately ripped (confidence 58) [5569720C] (AR v2)
Track 2 accurately ripped (confidence 58) [DE821894] (AR v2)
Track 3 accurately ripped (confidence 58) [AA8BB77C] (AR v2)
Track 4 accurately ripped (confidence 57) [839C3DEF] (AR v2)
Track 5 accurately ripped (confidence 57) [98CBED7A] (AR v2)
Track 6 accurately ripped (confidence 57) [7067803D] (AR v2)
Track 7 accurately ripped (confidence 57) [04574B95] (AR v2)
Track 8 accurately ripped (confidence 58) [A88B301C] (AR v2)
Track 9 accurately ripped (confidence 58) [FC5DB5D4] (AR v2)
Track 10 accurately ripped (confidence 56) [869118C8] (AR v2)
Track 11 accurately ripped (confidence 55) [EB113477] (AR v2)
Track 12 accurately ripped (confidence 57) [63D12262] (AR v2)
Track 13 accurately ripped (confidence 58) [1EC26AB3] (AR v2)

All tracks accurately ripped

End of status report

—- CUETools DB Plugin V2.1.6

[CTDB TOCID: fYkrNuZyiWUr_YBIeBXPPOheIJU-] found
Submit result: fYkrNuZyiWUr_YBIeBXPPOheIJU- has been confirmed
Track | CTDB Status
1 | (136/136) Accurately ripped
2 | (136/136) Accurately ripped
3 | (136/136) Accurately ripped
4 | (135/136) Accurately ripped
5 | (136/136) Accurately ripped
6 | (136/136) Accurately ripped
7 | (136/136) Accurately ripped
8 | (136/136) Accurately ripped
9 | (136/136) Accurately ripped
10 | (135/136) Accurately ripped
11 | (136/136) Accurately ripped
12 | (135/136) Accurately ripped
13 | (136/136) Accurately ripped

==== Log checksum 4BB3161F6B5C451BEA7CEE99683DA3005DB19522B74194CD610DB20C41A77FB3 ====

REM GENRE Jazz
REM DATE 2005
REM DISCID 970A210D
REM COMMENT “ExactAudioCopy v1.1”
PERFORMER “Rod Stewart”
TITLE “Thanks for the Memory – The Great American Songbook Volume IV”
FILE “Rod Stewart – Thanks for the Memory – The Great American Songbook Volume IV.flac” WAVE
TRACK 01 AUDIO
TITLE “I’ve Got a Crush on You (w Diana Ross)”
PERFORMER “Rod Stewart”
INDEX 01 00:00:00
TRACK 02 AUDIO
TITLE “Blue Skies”
PERFORMER “Rod Stewart”
INDEX 00 03:08:12
INDEX 01 03:08:55
TRACK 03 AUDIO
TITLE “I Wish You Love (feat. Chris Botti)”
PERFORMER “Rod Stewart”
INDEX 00 06:46:42
INDEX 01 06:47:10
TRACK 04 AUDIO
TITLE “Makin’ Whoopee (w Elton John)”
PERFORMER “Rod Stewart”
INDEX 00 10:22:57
INDEX 01 10:23:30
TRACK 05 AUDIO
TITLE “Thanks for the Memory”
PERFORMER “Rod Stewart”
INDEX 00 13:34:42
INDEX 01 13:35:10
TRACK 06 AUDIO
TITLE “Nevertheless (feat. Dave Koz)”
PERFORMER “Rod Stewart”
INDEX 00 17:19:40
INDEX 01 17:20:07
TRACK 07 AUDIO
TITLE “Long Ago and Far Away”
PERFORMER “Rod Stewart”
INDEX 00 20:44:60
INDEX 01 20:45:27
TRACK 08 AUDIO
TITLE “You Send Me (with Chaka Khan)”
PERFORMER “Rod Stewart”
INDEX 00 24:12:42
INDEX 01 24:13:10
TRACK 09 AUDIO
TITLE “My Funny Valentine”
PERFORMER “Rod Stewart”
INDEX 00 27:02:15
INDEX 01 27:02:57
TRACK 10 AUDIO
TITLE “I’ve Got My Love to Keep Me Warm”
PERFORMER “Rod Stewart”
INDEX 00 30:12:12
INDEX 01 30:12:55
TRACK 11 AUDIO
TITLE “Taking a Chance on Love”
PERFORMER “Rod Stewart”
INDEX 00 34:02:60
INDEX 01 34:03:27
TRACK 12 AUDIO
TITLE “Let’s Fall in Love (feat. George Benson)”
PERFORMER “Rod Stewart”
INDEX 00 36:46:40
INDEX 01 36:47:07
TRACK 13 AUDIO
TITLE “My One and Only Love (feat. Roy Hargrove)”
PERFORMER “Rod Stewart”
INDEX 00 39:59:05
INDEX 01 40:02:55


Spread the Download

Leave a Reply

Your email address will not be published. Required fields are marked *

Enter the text from the image below
 

This site uses Akismet to reduce spam. Learn how your comment data is processed.