Rod Stewart – Sing It Again Rod (Reissue)




Artist: Rod Stewart
Year: 1973/1998
Genre: Rock
Notes: Discogs
Add. Notes: Reissue
Cover incl.: Yes
Encoder: FLAC
Bitrate: ~900 kBit/s (44.1 kHz/16 Bit/s)
Log & Cue incl.: Yes/Yes
Size: 318,4 MB
Password: “slam” (without ” “)


All Downloads/Hosters are compatible

Download 1
KatFile.com
Turbobit.net
FileFactory.com
Rapidgator.net
Download 2
KatFile.com
Turbobit.net
FileFactory.com
Rapidgator.net

Tracklist:

1 Reason To Believe (Find A Reason To Believe) 3:45
2 You Wear It Well 4:10
3 Mandolin Wind 5:25
4 Country Comfort 4:41
5 Maggie May 5:12
6 Handbags And Gladrags 3:58
7 Street Fighting Man 4:59
8 Twisting The Night Away 3:07
9 Lost Paraguayos 3:50
10 (I Know) I'm Losing You 5:03
11 Pinball Wizard (From The Rock Opera "Tommy" 
(1914-1984)) 3:09
12 Gasoline Alley 4:02

EAC-Log, CUE-Sheed & NFO:

Click to open spoiler
Exact Audio Copy V1.3 from 2. September 2016

EAC extraction logfile from 11. October 2017, 21:06

Rod Stewart / Sing It Again Rod

Used drive : Optiarc DVD RW AD-7260S Adapter: 1 ID: 2

Read mode : Secure
Utilize accurate stream : Yes
Defeat audio cache : Yes
Make use of C2 pointers : No

Read offset correction : 48
Overread into Lead-In and Lead-Out : No
Fill up missing offset samples with silence : Yes
Delete leading and trailing silent blocks : No
Null samples used in CRC calculations : Yes
Used interface : Native Win32 interface for Win NT & 2000

Used output format : User Defined Encoder
Selected bitrate : 128 kBit/s
Quality : High
Add ID3 tag : No
Command line compressor : C:\Program Files\Exact Audio Copy\Flac\flac.exe
Additional command line options : -V -8 -T “Date=%year%” -T “Genre=%genre%” %source%

TOC of the extracted CD

Track | Start | Length | Start sector | End sector
———————————————————
1 | 0:00.00 | 3:45.08 | 0 | 16882
2 | 3:45.08 | 4:10.52 | 16883 | 35684
3 | 7:55.60 | 5:28.33 | 35685 | 60317
4 | 13:24.18 | 4:41.00 | 60318 | 81392
5 | 18:05.18 | 5:14.70 | 81393 | 105012
6 | 23:20.13 | 4:25.02 | 105013 | 124889
7 | 27:45.15 | 4:58.73 | 124890 | 147312
8 | 32:44.13 | 3:07.17 | 147313 | 161354
9 | 35:51.30 | 3:49.53 | 161355 | 178582
10 | 39:41.08 | 5:03.45 | 178583 | 201352
11 | 44:44.53 | 3:12.22 | 201353 | 215774
12 | 47:57.00 | 4:02.18 | 215775 | 233942

Range status and errors

Selected range

Filename M:\Slava Z\SiAR 1973\Rod Stewart – Sing It Again Rod.wav

Peak level 100.0 %
Extraction speed 3.4 X
Range quality 100.0 %
Test CRC D32BF751
Copy CRC D32BF751
Copy OK

No errors occurred

AccurateRip summary

Track 1 accurately ripped (confidence 2) [647B4973] (AR v2)
Track 2 accurately ripped (confidence 2) [3A39D191] (AR v2)
Track 3 accurately ripped (confidence 2) [E7C5AFAD] (AR v2)
Track 4 accurately ripped (confidence 2) [4FFC9E01] (AR v2)
Track 5 accurately ripped (confidence 2) [0E7881A9] (AR v2)
Track 6 accurately ripped (confidence 2) [EAD1F3AC] (AR v2)
Track 7 accurately ripped (confidence 2) [000D6F98] (AR v2)
Track 8 accurately ripped (confidence 2) [CA867D61] (AR v2)
Track 9 accurately ripped (confidence 2) [454E37F9] (AR v2)
Track 10 accurately ripped (confidence 2) [A010E36E] (AR v2)
Track 11 accurately ripped (confidence 2) [8DC55F00] (AR v2)
Track 12 accurately ripped (confidence 2) [7A7D637D] (AR v2)

All tracks accurately ripped

End of status report

—- CUETools DB Plugin V2.1.6

[CTDB TOCID: EXTlRDKPdcP7hqPsc3ya2jrOntQ-] found
Submit result: EXTlRDKPdcP7hqPsc3ya2jrOntQ- has been confirmed
Track | CTDB Status
1 | ( 6/51) Accurately ripped
2 | ( 6/51) Accurately ripped
3 | ( 5/51) Accurately ripped
4 | ( 6/51) Accurately ripped
5 | ( 6/51) Accurately ripped
6 | ( 6/51) Accurately ripped
7 | ( 6/51) Accurately ripped
8 | ( 5/51) Accurately ripped
9 | ( 6/51) Accurately ripped
10 | ( 5/51) Accurately ripped
11 | ( 6/51) Accurately ripped
12 | ( 6/51) Accurately ripped

==== Log checksum 3FB1F859B7506FB9863E48F8B430C96695D55F5ACD6A2A6D603A98EFFCF7B078 ====

REM DISCID B90C2F0C
REM COMMENT “ExactAudioCopy v1.3”
PERFORMER “Rod Stewart”
TITLE “Sing It Again Rod”
REM COMPOSER “”
FILE “Rod Stewart – Sing It Again Rod.flac” WAVE
TRACK 01 AUDIO
TITLE “Reason To Believe”
PERFORMER “Rod Stewart”
REM COMPOSER “”
INDEX 01 00:00:00
TRACK 02 AUDIO
TITLE “You Wear It Well”
PERFORMER “Rod Stewart”
REM COMPOSER “”
INDEX 01 03:45:08
TRACK 03 AUDIO
TITLE “Mandolin Wind”
PERFORMER “Rod Stewart”
REM COMPOSER “”
INDEX 01 07:55:60
TRACK 04 AUDIO
TITLE “Country Comforts”
PERFORMER “Rod Stewart”
REM COMPOSER “”
INDEX 01 13:24:18
TRACK 05 AUDIO
TITLE “Maggie May”
PERFORMER “Rod Stewart”
REM COMPOSER “”
INDEX 01 18:05:18
TRACK 06 AUDIO
TITLE “Handbags And Gladrags”
PERFORMER “Rod Stewart”
REM COMPOSER “”
INDEX 00 23:17:63
INDEX 01 23:20:13
TRACK 07 AUDIO
TITLE “Street Fighting Man”
PERFORMER “Rod Stewart”
REM COMPOSER “”
INDEX 00 27:42:65
INDEX 01 27:45:15
TRACK 08 AUDIO
TITLE “Twisting The Night Away”
PERFORMER “Rod Stewart”
REM COMPOSER “”
INDEX 01 32:44:13
TRACK 09 AUDIO
TITLE “Lost Paraguayos”
PERFORMER “Rod Stewart”
REM COMPOSER “”
INDEX 01 35:51:30
TRACK 10 AUDIO
TITLE “(I Know) I’m Losing You”
PERFORMER “Rod Stewart”
REM COMPOSER “”
INDEX 01 39:41:08
TRACK 11 AUDIO
TITLE “Pinball Wizard (From The Rock Opera ‘Tommy (1914-1984)’)”
PERFORMER “Rod Stewart”
REM COMPOSER “”
INDEX 01 44:44:53
TRACK 12 AUDIO
TITLE “Gasoline Alley”
PERFORMER “Rod Stewart”
REM COMPOSER “”
INDEX 00 47:54:13
INDEX 01 47:57:00


Leave a Reply

Your email address will not be published. Required fields are marked *

This site uses Akismet to reduce spam. Learn how your comment data is processed.