Rod Stewart – Out Of Order




No Cover available


Artist: Rod Stewart
Year: 1988
Genre: Rock
Notes: Discogs
Add. Notes:
Watch Songs on: YouTube
Cover incl.: Yes
Encoder: FLAC
Bitrate: ~800 kBit/s (44.1 kHz/16 Bit/s)
Log & Cue incl.: Yes/Yes
Size: 481,1 MB
Password: “slam” (without ” “)


All Downloads/Hosters are compatible

Download 1
KatFile.com
Turbobit.net
Rapidgator.net
FileFactory.com
Download 2
KatFile.com
Turbobit.net
Rapidgator.net
FileFactory.com

Tracklist:

1 Lost In You 4:57
2 The Wild Horse 4:57
3 Lethal Dose Of Love 4:38
4 Forever Young 4:03
5 My Heart Can't Tell Me No 5:11
6 Dynamite 4:16
7 Nobody Knows You When You're Down And Out 3:50
8 Crazy About Her 4:53
9 Try A Little Tenderness 4:27
10 When I Was Your Man 5:12
11 Almost Illegal 4:27

EAC-Log, CUE-Sheed & NFO:

Click to open spoiler
Exact Audio Copy V1.0 beta 3 from 29. August 2011

EAC extraction logfile from 25. August 2015, 22:39

Rod Stewart / Out Of Order (7599-25684-2)

Used drive : SONY CD-RW CRX210E1 Adapter: 0 ID: 1

Read mode : Secure
Utilize accurate stream : Yes
Defeat audio cache : Yes
Make use of C2 pointers : No

Read offset correction : 6
Overread into Lead-In and Lead-Out : No
Fill up missing offset samples with silence : Yes
Delete leading and trailing silent blocks : No
Null samples used in CRC calculations : Yes
Used interface : Native Win32 interface for Win NT & 2000

Used output format : Internal WAV Routines
Sample format : 44.100 Hz; 16 Bit; Stereo

TOC of the extracted CD

Track | Start | Length | Start sector | End sector
———————————————————
1 | 0:00.33 | 5:02.00 | 33 | 22682
2 | 5:02.33 | 5:01.57 | 22683 | 45314
3 | 10:04.15 | 4:39.73 | 45315 | 66312
4 | 14:44.13 | 4:08.00 | 66313 | 84912
5 | 18:52.13 | 5:14.62 | 84913 | 108524
6 | 24:07.00 | 4:20.68 | 108525 | 128092
7 | 28:27.68 | 3:53.62 | 128093 | 145629
8 | 32:21.55 | 4:59.08 | 145630 | 168062
9 | 37:20.63 | 4:31.57 | 168063 | 188444
10 | 41:52.45 | 5:14.35 | 188445 | 212029
11 | 47:07.05 | 4:26.73 | 212030 | 232052

Range status and errors

Selected range

Filename D:\Ready.zp\Rod Stewart – Out Of Order (7599-25684-2).wav

Peak level 94.4 %
Extraction speed 14.4 X
Range quality 100.0 %
Test CRC EED22923
Copy CRC EED22923
Copy OK

No errors occurred

AccurateRip summary

Track 1 accurately ripped (confidence 47) [0DB36625] (AR v2)
Track 2 accurately ripped (confidence 47) [FB966D27] (AR v2)
Track 3 accurately ripped (confidence 48) [280BE615] (AR v2)
Track 4 accurately ripped (confidence 47) [4E02743D] (AR v2)
Track 5 accurately ripped (confidence 46) [F7AD0BFC] (AR v2)
Track 6 accurately ripped (confidence 46) [5D15A48E] (AR v2)
Track 7 accurately ripped (confidence 48) [3FF81BA5] (AR v2)
Track 8 accurately ripped (confidence 48) [65327B61] (AR v2)
Track 9 accurately ripped (confidence 46) [044E935F] (AR v2)
Track 10 accurately ripped (confidence 46) [3D468743] (AR v2)
Track 11 accurately ripped (confidence 46) [F18B85B0] (AR v2)

All tracks accurately ripped

End of status report

==== Log checksum 9A9DA69909875B7F8983BDACC1F34AF5D99B1B2C88DA09D4CCCCA7C6FA124AF6 ====

REM GENRE Rock
REM DATE 1988
REM DISCID 930C160B
REM COMMENT “ExactAudioCopy v1.0b3”
PERFORMER “Rod Stewart”
TITLE “Out Of Order (7599-25684-2)”
FILE “Rod Stewart – Out Of Order (7599-25684-2).flac” WAVE
TRACK 01 AUDIO
TITLE “Lost In You”
PERFORMER “Rod Stewart”
INDEX 00 00:00:00
INDEX 01 00:00:33
TRACK 02 AUDIO
TITLE “The Wild Horse”
PERFORMER “Rod Stewart”
INDEX 00 04:58:35
INDEX 01 05:02:33
TRACK 03 AUDIO
TITLE “Lethal Dose Of Love”
PERFORMER “Rod Stewart”
INDEX 00 10:00:35
INDEX 01 10:04:15
TRACK 04 AUDIO
TITLE “Forever Young”
PERFORMER “Rod Stewart”
INDEX 00 14:43:03
INDEX 01 14:44:13
TRACK 05 AUDIO
TITLE “My Heart Can’t Tell You No”
PERFORMER “Rod Stewart”
INDEX 00 18:48:30
INDEX 01 18:52:13
TRACK 06 AUDIO
TITLE “Dynamite”
PERFORMER “Rod Stewart”
INDEX 00 24:03:73
INDEX 01 24:07:00
TRACK 07 AUDIO
TITLE “Nobody Knows You When You’re Down And Out”
PERFORMER “Rod Stewart”
INDEX 00 28:24:23
INDEX 01 28:27:68
TRACK 08 AUDIO
TITLE “Crazy About Her”
PERFORMER “Rod Stewart”
INDEX 00 32:18:35
INDEX 01 32:21:55
TRACK 09 AUDIO
TITLE “Try A Little Tenderness”
PERFORMER “Rod Stewart”
INDEX 00 37:15:65
INDEX 01 37:20:63
TRACK 10 AUDIO
TITLE “When I Was Your Man”
PERFORMER “Rod Stewart”
INDEX 00 41:49:05
INDEX 01 41:52:45
TRACK 11 AUDIO
TITLE “Almost Illegal”
PERFORMER “Rod Stewart”
INDEX 00 47:05:33
INDEX 01 47:07:05


0

Publication author

offline 5 days

Chaos

3
Comments: 4Publics: 3565Registration: 02-02-2019
Spread the Download

Leave a Reply

Your email address will not be published. Required fields are marked *

Enter the text from the image below
 

This site uses Akismet to reduce spam. Learn how your comment data is processed.