Rod Stewart – Out Of Order (Japanese Edition)




No Cover available

Artist: Rod Stewart
Year: 1988
Genre: Rock
Notes: Discogs
Add. Notes: Japanese Edition
Watch Songs on: YouTube
Cover incl.: Yes
Encoder: FLAC
Bitrate: ~800 kBit/s (44.1 kHz/16 Bit/s)
Log & Cue incl.: Yes/Yes
Size: 316,8 MB
Password: “slam” (without ” “)


All Downloads/Hosters are compatible

Download 1
KatFile.com
Turbobit.net
Rapidgator.net
FileFactory.com
Download 2
KatFile.com
Turbobit.net
Rapidgator.net
FileFactory.com

Tracklist:

1 Lost in You 
2 The Wild Horse 
3 Lethal Dose Of Love 
4 Forever Young 
5 My Heart Can't Tell You No 
6 Dynamite 
7 Nobody Knows You When You're Down And... 
8 Crazy About Her 
9 Try A Little Tenderness 
10 When I Was Your Man 
11 Almost Illegal 

EAC-Log, CUE-Sheed & NFO:

Click to open spoiler
Exact Audio Copy V1.3 from 2. September 2016

EAC extraction logfile from 11. October 2017, 22:34

Rod Stewart / Out Of Order

Used drive : Optiarc DVD RW AD-7260S Adapter: 1 ID: 2

Read mode : Secure
Utilize accurate stream : Yes
Defeat audio cache : Yes
Make use of C2 pointers : No

Read offset correction : 48
Overread into Lead-In and Lead-Out : No
Fill up missing offset samples with silence : Yes
Delete leading and trailing silent blocks : No
Null samples used in CRC calculations : Yes
Used interface : Native Win32 interface for Win NT & 2000

Used output format : User Defined Encoder
Selected bitrate : 128 kBit/s
Quality : High
Add ID3 tag : No
Command line compressor : C:\Program Files\Exact Audio Copy\Flac\flac.exe
Additional command line options : -V -8 -T “Date=%year%” -T “Genre=%genre%” %source%

TOC of the extracted CD

Track | Start | Length | Start sector | End sector
———————————————————
1 | 0:00.00 | 5:02.47 | 0 | 22696
2 | 5:02.47 | 5:01.60 | 22697 | 45331
3 | 10:04.32 | 4:39.70 | 45332 | 66326
4 | 14:44.27 | 4:08.03 | 66327 | 84929
5 | 18:52.30 | 5:14.57 | 84930 | 108536
6 | 24:07.12 | 4:21.00 | 108537 | 128111
7 | 28:28.12 | 3:53.60 | 128112 | 145646
8 | 32:21.72 | 4:59.05 | 145647 | 168076
9 | 37:21.02 | 4:31.60 | 168077 | 188461
10 | 41:52.62 | 5:14.33 | 188462 | 212044
11 | 47:07.20 | 4:28.10 | 212045 | 232154

Range status and errors

Selected range

Filename M:\Slava Z\OoO\Rod Stewart – Out Of Order.wav

Peak level 94.4 %
Extraction speed 3.3 X
Range quality 100.0 %
Test CRC 251D7366
Copy CRC 251D7366
Copy OK

No errors occurred

AccurateRip summary

Track 1 accurately ripped (confidence 1) [F4A7B71D] (AR v2)
Track 2 accurately ripped (confidence 1) [30DB23A8] (AR v2)
Track 3 accurately ripped (confidence 1) [EDEF2858] (AR v2)
Track 4 accurately ripped (confidence 1) [AE2CF006] (AR v2)
Track 5 accurately ripped (confidence 1) [20E67272] (AR v2)
Track 6 accurately ripped (confidence 1) [8B17AA6D] (AR v2)
Track 7 cannot be verified as accurate (confidence 1) [6A81EA05], AccurateRip returned [352775CD] (AR v2)
Track 8 cannot be verified as accurate (confidence 1) [3547B0D7], AccurateRip returned [BBE1077F] (AR v2)
Track 9 accurately ripped (confidence 1) [2C57F247] (AR v2)
Track 10 accurately ripped (confidence 1) [2A53E666] (AR v2)
Track 11 accurately ripped (confidence 1) [EEF4F64F] (AR v2)

9 трек(и) скопированы точно
2 трек(и) не удалось проверить на точность

Some tracks could not be verified as accurate

End of status report

—- CUETools DB Plugin V2.1.6

[CTDB TOCID: hkMRSm6U0POyte0gClY_JT1vHq0-] found
Submit result: hkMRSm6U0POyte0gClY_JT1vHq0- has been confirmed
Track | CTDB Status
1 | (13/13) Accurately ripped
2 | (13/13) Accurately ripped
3 | (13/13) Accurately ripped
4 | (13/13) Accurately ripped
5 | (13/13) Accurately ripped
6 | (13/13) Accurately ripped
7 | (11/13) Accurately ripped
8 | (11/13) Accurately ripped
9 | (13/13) Accurately ripped
10 | (13/13) Accurately ripped
11 | (13/13) Accurately ripped

==== Log checksum 846BB281967CFDA1E93CA10B5003564DD78C100856B8047F50CC0C0943ED068A ====

REM GENRE Rock
REM DATE 1988
REM DISCID 8C0C170B
REM COMMENT “ExactAudioCopy v1.3”
PERFORMER “Rod Stewart”
TITLE “Out Of Order”
REM COMPOSER “”
FILE “Rod Stewart – Out Of Order.flac” WAVE
TRACK 01 AUDIO
TITLE “Lost In You”
PERFORMER “Rod Stewart”
REM COMPOSER “”
INDEX 01 00:00:00
TRACK 02 AUDIO
TITLE “The Wild Horse”
PERFORMER “Rod Stewart”
REM COMPOSER “”
INDEX 00 04:59:05
INDEX 01 05:02:47
TRACK 03 AUDIO
TITLE “Lethal Dose Of Love”
PERFORMER “Rod Stewart”
REM COMPOSER “”
INDEX 00 10:01:20
INDEX 01 10:04:32
TRACK 04 AUDIO
TITLE “Forever Young”
PERFORMER “Rod Stewart”
REM COMPOSER “”
INDEX 00 14:43:62
INDEX 01 14:44:27
TRACK 05 AUDIO
TITLE “My Heart Can’t Tell Me No”
PERFORMER “Rod Stewart”
REM COMPOSER “”
INDEX 00 18:49:10
INDEX 01 18:52:30
TRACK 06 AUDIO
TITLE “Dynamite”
PERFORMER “Rod Stewart”
REM COMPOSER “”
INDEX 00 24:04:50
INDEX 01 24:07:12
TRACK 07 AUDIO
TITLE “Nobody Knows You When You’re Down And Out”
PERFORMER “Rod Stewart”
REM COMPOSER “”
INDEX 00 28:25:10
INDEX 01 28:28:12
TRACK 08 AUDIO
TITLE “Crazy About Her”
PERFORMER “Rod Stewart”
REM COMPOSER “”
INDEX 00 32:19:12
INDEX 01 32:21:72
TRACK 09 AUDIO
TITLE “Try A Little Tenderness”
PERFORMER “Rod Stewart”
REM COMPOSER “”
INDEX 00 37:16:47
INDEX 01 37:21:02
TRACK 10 AUDIO
TITLE “When I Was Your Man”
PERFORMER “Rod Stewart”
REM COMPOSER “”
INDEX 00 41:49:70
INDEX 01 41:52:62
TRACK 11 AUDIO
TITLE “Almost Illegal”
PERFORMER “Rod Stewart”
REM COMPOSER “”
INDEX 00 47:06:25
INDEX 01 47:07:20


Leave a Reply

Your email address will not be published. Required fields are marked *

Enter the text from the image below
 

This site uses Akismet to reduce spam. Learn how your comment data is processed.