Rod Stewart – Never A Dull Moment




Artist: Rod Stewart
Year: 1972/1987
Genre: Rock
Notes: Discogs
Add. Notes:
Cover incl.: Yes
Encoder: FLAC
Bitrate: ~800 kBit/s (44.1 kHz/16 Bit/s)
Log & Cue incl.: Yes
Size: 249 MB
Password: “slam” (without ” “)


All Downloads/Hosters are compatible

Download 1
KatFile.com
Rapidgator.net
Turbobit.net
FileFactory.com
Download 2
KatFile.com
Rapidgator.net
Turbobit.net
FileFactory.com

Tracklist:

1 - True Blue - 3:31
2 - Lost Paraguayos - 3:57
3 - Mama You Been On My Mind - 
4:26
4 - Italian Girls - 4:54
5 - Angel - 4:03
6 - Interludings - 0:39
7 - You Wear It Well - 4:20
8 - I'd Rather Go Blind - 3:52
9 - Twistin' The Night Away - 3:13

EAC-Log, CUE-Sheed & NFO:

Click to open spoiler
Exact Audio Copy V1.1 from 23. June 2015

EAC extraction logfile from 18. September 2015, 23:55

Rod Stewart / Never a Dull Moment

Used drive : Optiarc DVD RW AD-7260S Adapter: 1 ID: 0

Read mode : Secure
Utilize accurate stream : Yes
Defeat audio cache : Yes
Make use of C2 pointers : No

Read offset correction : 48
Overread into Lead-In and Lead-Out : No
Fill up missing offset samples with silence : Yes
Delete leading and trailing silent blocks : No
Null samples used in CRC calculations : Yes
Used interface : Native Win32 interface for Win NT & 2000

Used output format : User Defined Encoder
Selected bitrate : 768 kBit/s
Quality : High
Add ID3 tag : No
Command line compressor : C:\Program Files (x86)\Exact Audio Copy\Flac\flac.exe
Additional command line options : -V -8 %source%

TOC of the extracted CD

Track | Start | Length | Start sector | End sector
———————————————————
1 | 0:00.33 | 3:31.50 | 33 | 15907
2 | 3:32.08 | 3:58.10 | 15908 | 33767
3 | 7:30.18 | 4:27.40 | 33768 | 53832
4 | 11:57.58 | 4:55.60 | 53833 | 76017
5 | 16:53.43 | 4:06.50 | 76018 | 94517
6 | 21:00.18 | 0:40.15 | 94518 | 97532
7 | 21:40.33 | 4:23.35 | 97533 | 117292
8 | 26:03.68 | 3:52.12 | 117293 | 134704
9 | 29:56.05 | 3:13.45 | 134705 | 149224

Range status and errors

Selected range

Filename C:\Users\Slava Z\Desktop\Rod Stewart – Never a Dull Moment.wav

Peak level 76.5 %
Extraction speed 3.4 X
Range quality 99.9 %
Test CRC 0A3771B3
Copy CRC 0A3771B3
Copy OK

No errors occurred

AccurateRip summary

Track 1 accurately ripped (confidence 5) [3315F051] (AR v2)
Track 2 accurately ripped (confidence 5) [FFFBA983] (AR v2)
Track 3 accurately ripped (confidence 5) [4E6ADA35] (AR v2)
Track 4 accurately ripped (confidence 5) [2A1A3A49] (AR v2)
Track 5 accurately ripped (confidence 5) [C96EC8ED] (AR v2)
Track 6 accurately ripped (confidence 5) [64CD8A9F] (AR v2)
Track 7 accurately ripped (confidence 5) [FC5E2035] (AR v2)
Track 8 accurately ripped (confidence 5) [4E2662A2] (AR v2)
Track 9 accurately ripped (confidence 5) [2DAE1A31] (AR v2)

All tracks accurately ripped

End of status report

==== Log checksum 005E90B3E348594BDDC21045D46F2930D383573F75A9AF48D2F729AB4A25EC6F ====

REM DATE 1972
REM DISCID 6707C509
REM COMMENT “ExactAudioCopy v1.1”
PERFORMER “Rod Stewart”
TITLE “Never a Dull Moment”
FILE “Rod Stewart – Never a Dull Moment.flac” WAVE
TRACK 01 AUDIO
TITLE “True Blue”
PERFORMER “Rod Stewart”
INDEX 00 00:00:00
INDEX 01 00:00:33
TRACK 02 AUDIO
TITLE “Lost Paraguayos”
PERFORMER “Rod Stewart”
INDEX 01 03:32:08
TRACK 03 AUDIO
TITLE “Mama You Been on My Mind”
PERFORMER “Rod Stewart”
INDEX 00 07:29:53
INDEX 01 07:30:18
TRACK 04 AUDIO
TITLE “Italian Girls”
PERFORMER “Rod Stewart”
INDEX 00 11:56:55
INDEX 01 11:57:58
TRACK 05 AUDIO
TITLE “Angel”
PERFORMER “Rod Stewart”
INDEX 00 16:52:35
INDEX 01 16:53:43
TRACK 06 AUDIO
TITLE “Interludings”
PERFORMER “Rod Stewart”
INDEX 00 20:57:23
INDEX 01 21:00:18
TRACK 07 AUDIO
TITLE “You Wear It Well”
PERFORMER “Rod Stewart”
INDEX 00 21:40:15
INDEX 01 21:40:33
TRACK 08 AUDIO
TITLE “I’d Rather Go Blind”
PERFORMER “Rod Stewart”
INDEX 00 26:01:38
INDEX 01 26:03:68
TRACK 09 AUDIO
TITLE “Twistin’ the Night Away”
PERFORMER “Rod Stewart”
INDEX 01 29:56:05


Leave a Reply

Your email address will not be published. Required fields are marked *

This site uses Akismet to reduce spam. Learn how your comment data is processed.