Rod Stewart – Lead Vocalist




[Total: 0    Average: 0/5]

Artist: Rod Stewart
Year: 1993
Genre: Rock
Notes: Discogs
Add. Notes:
Cover incl.: Yes
Encoder: FLAC
Bitrate: ~800 kBit/s (44.1 kHz/16 Bit/s)
Log & Cue incl.: Yes
Size: 586 MB
Password: “slam” (without ” “)


All Downloads/Hosters are compatible

Download 1
Share-online.biz
KatFile.com
Rapidgator.net
Mexa.sh
Download 2
Share-online.biz
KatFile.com
Rapidgator.net
Mexa.sh

Tracklist:

1. I Ain't Superstitious - 4:53
2. Handbags And Gladrags - 4:22
3. Cindy Incidentally - 2:36
4. Stay With Me - 4:37
5. True Blue - 3:31
6. Sweet Lady Mary - 5:48
7. Hot Legs - 5:14
8. Stand Back - 5:44
9. Ruby Tuesday - 4:04
10. Shotgun Wedding - 3:30
11. First I Look At The Purse - 4:23
12. Tom Traubert's Blues - 6:12

EAC-Log, CUE-Sheed & NFO:

Click to open spoiler
Exact Audio Copy V1.0 beta 3 from 29. August 2011

EAC extraction logfile from 21. August 2015, 13:30

Rod Stewart / Rod Stewart, Lead Vocalist. (9362-45258-2)

Used drive : SONY CD-RW CRX210E1 Adapter: 0 ID: 1

Read mode : Secure
Utilize accurate stream : Yes
Defeat audio cache : Yes
Make use of C2 pointers : No

Read offset correction : 6
Overread into Lead-In and Lead-Out : No
Fill up missing offset samples with silence : Yes
Delete leading and trailing silent blocks : No
Null samples used in CRC calculations : Yes
Used interface : Native Win32 interface for Win NT & 2000

Used output format : Internal WAV Routines
Sample format : 44.100 Hz; 16 Bit; Stereo

TOC of the extracted CD

Track | Start | Length | Start sector | End sector
———————————————————
1 | 0:00.00 | 4:53.37 | 0 | 22011
2 | 4:53.37 | 4:22.40 | 22012 | 41701
3 | 9:16.02 | 2:36.73 | 41702 | 53474
4 | 11:53.00 | 4:37.25 | 53475 | 74274
5 | 16:30.25 | 3:32.22 | 74275 | 90196
6 | 20:02.47 | 5:48.50 | 90197 | 116346
7 | 25:51.22 | 5:15.60 | 116347 | 140031
8 | 31:07.07 | 5:44.13 | 140032 | 165844
9 | 36:51.20 | 4:04.15 | 165845 | 184159
10 | 40:55.35 | 3:30.32 | 184160 | 199941
11 | 44:25.67 | 4:23.50 | 199942 | 219716
12 | 48:49.42 | 6:12.00 | 219717 | 247616

Range status and errors

Selected range

Filename D:\Ready.zp\Rod Stewart – Rod Stewart, Lead Vocalist. (9362-45258-2).wav

Peak level 100.0 %
Extraction speed 6.2 X
Range quality 100.0 %
Test CRC 48C1AB53
Copy CRC 48C1AB53
Copy OK

No errors occurred

AccurateRip summary

Track 1 accurately ripped (confidence 87) [19B35287] (AR v2)
Track 2 accurately ripped (confidence 89) [37FC774C] (AR v2)
Track 3 accurately ripped (confidence 90) [F5BF0E72] (AR v2)
Track 4 accurately ripped (confidence 89) [CB352C45] (AR v2)
Track 5 accurately ripped (confidence 89) [D58E6E44] (AR v2)
Track 6 accurately ripped (confidence 90) [FD1CA8DC] (AR v2)
Track 7 accurately ripped (confidence 88) [84678B26] (AR v2)
Track 8 accurately ripped (confidence 90) [FB43578F] (AR v2)
Track 9 accurately ripped (confidence 90) [03EC1C70] (AR v2)
Track 10 accurately ripped (confidence 89) [E0048797] (AR v2)
Track 11 accurately ripped (confidence 89) [0D5709FE] (AR v2)
Track 12 accurately ripped (confidence 87) [A3B1196A] (AR v2)

All tracks accurately ripped

End of status report

==== Log checksum B7A67E3F0660128562FFB6AEE211EE8AF8C695FCFAA72466B06F4A11417435E3 ====

REM GENRE Rock
REM DATE 1993
REM DISCID B00CE50C
REM COMMENT “ExactAudioCopy v1.0b3”
PERFORMER “Rod Stewart”
TITLE “Rod Stewart, Lead Vocalist. (9362-45258-2)”
FILE “Rod Stewart – Rod Stewart, Lead Vocalist. (9362-45258-2).flac” WAVE
TRACK 01 AUDIO
TITLE “I Ain’t Superstitious (The Jeff Beck Group)”
PERFORMER “Rod Stewart”
INDEX 01 00:00:00
TRACK 02 AUDIO
TITLE “Handbags & Gladrags”
PERFORMER “Rod Stewart”
INDEX 00 04:52:47
INDEX 01 04:53:37
TRACK 03 AUDIO
TITLE “Cindy Incidentally (Faces)”
PERFORMER “Rod Stewart”
INDEX 01 09:16:02
TRACK 04 AUDIO
TITLE “Stay With Me (Faces)”
PERFORMER “Rod Stewart”
INDEX 00 11:52:35
INDEX 01 11:53:00
TRACK 05 AUDIO
TITLE “True Blue”
PERFORMER “Rod Stewart”
INDEX 00 16:30:17
INDEX 01 16:30:25
TRACK 06 AUDIO
TITLE “Sweet Lady Mary (Faces)”
PERFORMER “Rod Stewart”
INDEX 00 20:02:27
INDEX 01 20:02:47
TRACK 07 AUDIO
TITLE “Hotlegs”
PERFORMER “Rod Stewart”
INDEX 00 25:51:10
INDEX 01 25:51:22
TRACK 08 AUDIO
TITLE “Stand Back”
PERFORMER “Rod Stewart”
INDEX 00 31:06:05
INDEX 01 31:07:07
TRACK 09 AUDIO
TITLE “Ruby Tuesday”
PERFORMER “Rod Stewart”
INDEX 01 36:51:20
TRACK 10 AUDIO
TITLE “Shotgun Wedding”
PERFORMER “Rod Stewart”
INDEX 01 40:55:35
TRACK 11 AUDIO
TITLE “First I Look At The Purse”
PERFORMER “Rod Stewart”
INDEX 01 44:25:67
TRACK 12 AUDIO
TITLE “Tom Traubert’s Blues”
PERFORMER “Rod Stewart”
INDEX 00 48:49:02
INDEX 01 48:49:42


Spread the Download

Leave a Reply

Your email address will not be published. Required fields are marked *

Enter the text from the image below
 

This site uses Akismet to reduce spam. Learn how your comment data is processed.